This file was generated by Ched 2.7.0.0.
#TITLE ""
#ARTIST ""
#DESIGNER ""
#DIFFICULTY 0
#PLAYLEVEL
#SONGID ""
#WAVE ""
#WAVEOFFSET 0
#JACKET ""
#REQUEST "ticks_per_beat 480"
#00002: 4
#BPM01: 174
#00008: 01
#TIL00: ""
#VOLUME: ""
#HISPEED 00
#MEASUREHS 00
#0021a:1200001200121212
#00218:00120000
#00212:14
#00318:0012000000000000
#00418:0000120000000012
#0041a:0000001200121200
#00518:0012001200000012
#0051a:0012
#0061a:14
#00614:0000120000120000
#00616:0000001200000000
#00716:0000000000000012
#00816:1200001200001200
#00814:0000120000120000
#00914:00120000
#01012:14
#01018:0000121212001200
#0101a:0000000000000014
#01010:41
#01116:0000121212001200
#01112:0000000000000014
#01218:0000121212001200
#01318:0000000000000012
#0141a:12000012
#01418:0000001200000000
#01416:12000012
#01414:0000001200000000
#01513:0012000000000000
#01517:0012000000000000
#01518:0000000000120000
#01516:00000012
#0151a:0000000000000012
#01612:15555555
#01618:12131415
#01613:00535353005353530053535300535353
#01718:16000026
#01712:55160000
#01816:0000001600000000
#01812:26
#01818:26000026
#01810:41
#02014:0000001600000000
#02018:26
#02012:26000026
#02115:1626
#02118:00260000
#02112:00000026
#02214:00160000
#02218:2600000000000026
#02212:26002626
#02415:00000016000000000000000000000000
#02412:2600000000260000
#02418:2600002600000026
#02612:14141414
#0261a:14
#02618:0000000000000013
#02719:0000001300000000
#0271b:1313
#02712:14141414
#02815:0000000000000013
#02812:14
#0281a:14141414
#02912:0013
#02915:00000013
#0291a:14141414
#02516:00000014
#02515:0023002300000000
#02518:00230000
#0251a:0024
#02512:0024
#03014:0014000000140000
#03018:00141400
#03016:0000000000000014
#0301a:24000024
#03012:0000002400000000
#03118:0014000000140000
#03114:00141400
#03116:0000000000000014
#03112:24000024
#0311a:0000002400000000
#0331a:14
#03318:0000001300000000
#03315:0000001300000000
#03415:00130013
#03418:0000000000130000
#03412:2413
#0341a:24
#0341b:00230023
#03410:41
#03518:1300001300130000
#03512:14
#03515:0000001300000000
#0351b:00230023
#03618:00130013
#03615:0000000000130000
#0361b:0013
#03612:14230023
#0361a:14
#03715:1300001300130000
#0371a:14
#03718:0000001300000000
#03712:00230023
#03815:00130013
#03818:0000000000130000
#03812:1413
#0381a:14
#0381b:00230023
#03918:1300001300130000
#03912:14
#03915:0000001300000000
#0391b:00230023
#04012:14230023
#0401a:14000013
#04018:00130000
#04019:0013
#04015:0000000000130000
#04115:1300001300130000
#0411a:14
#04118:0000001300000000
#04112:00232323
#0421a:14
#04212:1400130000000013
#0421b:0000001300000000
#04216:0013
#04218:00230023
#04315:13230023
#0431b:0000130000000013
#04312:0000001300000000
#04318:0013000000000000
#04317:0013
#04418:13231323
#04415:0013000000130000
#04412:00130013
#0441b:0000001300000013
#04512:1300001300130024
#04518:0013000000130000
#0451b:0000001300000000
#04515:00230023
#04615:0000140000000014
#04618:1300000000130000
#0461b:00230023
#04612:00000034
#04718:1300001300130000
#0471b:00230023
#04817:0014140000000014
#04812:1400002400001400
#04815:0000000014140000
#0481a:2400001400002400
#0491a:14
#04918:0000001300000000
#04912:14
#04915:0000001300000000
#0501a:14
#05012:14
#0501f:11
#05013:0052525252525252
#0521a:14
#05213:52
#0521b:0052525252525252
#05617:1232323232320000
#0581b:0013
#05815:2613
#05812:0000001300001300
#0581f:21
#05918:0013000000000000
#05912:1300130000000013
#05915:0013
#0591b:00001313
#05910:41
#06012:0013
#06018:0013
#0601b:1300001300001300
#06015:26
#0611b:13
#06118:0013001313000013
#06115:00000000130000130000000000000000
#06112:00000013
#06212:14000013
#0621b:13130000
#06218:0000001300000000
#06215:0013
#0621a:00000014
#06312:13
#06315:0013000013000013
#06318:00000000130000000000000000000013
#0631b:0000000013130000
#06418:0000001313000013
#06415:00000000000000130000000013000000
#06412:1300000000130000
#0641b:00130000
#06518:0000141400000000
#06514:1400000000141400
#0651a:14000000000000000000001400000000
#06512:0000001400000000
#05714:12
#05718:22
#05715:0023
#0661a:2414
#06618:0000130000000013
#06615:0000001300001300
#06612:24
#06712:0014
#0671b:13
#06715:0014000000000013
#06718:0000001300001300
#06812:13
#06815:0000001300130013
#0681a:0014
#06818:00000013
#06817:0014000000000000
#06918:00001300000000130000130000000000
#06915:0000001300000000
#06912:0014
#06916:0000000000000024
#05418:0012000000000000
#0541b:5200000000000012
#0541a:0000000000120000
#05419:0000001200000000
#05415:23232323
#05513:0000000000000012
#05514:0000000000120000
#05515:0000001200000000
#05516:0012000000000000
#05518:23232323
#0701a:0014
#0701b:13
#07018:0000001300000000
#07016:0000000000140024
#07014:00000054
#07012:0000000000000054
#07112:0013000014000000
#07115:00130000
#07116:00000014
#07216:0014140014140014
#0721a:1400002400001400
#07212:2400001400002400
#07312:14
#07315:0000001300000000
#0731a:14
#07318:0000001300000000
#05118:0012000000000000
#0511b:0000001200000000
#05113:5252525252525252
#05313:0000001200000012
#05316:0012000000000000
#0531b:5252525252525252
#08819:15555555
#08816:12
#08815:00130000
#08814:0014
#08813:00000015
#0881a:00535353005353530053535300535353
#08912:16000026
#08918:00160000
#08919:55
#09014:0000001600000000
#09018:26
#09012:26000026
#09010:41
#09315:16
#09312:00262400
#09318:00000026
#0931a:0024
#09416:00160000
#09412:2600000000260026
#09418:26002626
#09615:00000016000000000000000000000000
#09618:2600000000260026
#09612:2600002600002600
#09716:00000014
#0971b:0023000000000000
#09718:00230000
#09715:0000002300000000
#09712:0024
#0971a:0024
#0981a:14141414
#09812:14
#09815:0000000000000013
#09914:0013001300000000
#09912:1313
#09916:00130000
#0991a:14141414
#10018:0000000000000013
#1001a:14
#10012:14141414
#1011b:1313
#10118:00000013
#10112:14141414
#10119:0013001300000000
#10117:00130000
#10218:0014140000000000
#1021a:0000000014140000
#10216:0000000000000014
#10212:24000024
#10214:0000002400000000
#10512:14000054
#10515:0000001300000000
#10518:0000001300000000
#1051a:00000054
#10314:0014140000000000
#10312:0000000014140000
#10316:0000000000000014
#1031a:24000024
#10318:0000002400000000
#07414:1300001200120000
#07416:0000120000000012
#07419:13
#0741b:00130013
#07410:41
#07516:0012000000000000
#0751b:00130013
#07514:0000001200000000
#07614:1200120000000012
#07616:0000001200120000
#0761b:00130013
#07714:0012001200000000
#0771b:00130013
#07716:00000000000000000000001200000000
#07718:0000000000000012
#0781a:1200120000120000
#07818:0000001200001200
#07812:00130013
#07918:0000000000001212
#07912:00130013
#08018:1200001200001200
#0801a:0000120000120000
#08012:00130013
#0811a:00120000
#08112:00130013
#08117:0012
#08214:12
#0821b:00130013
#08216:0000120012120012
#0841b:00000013
#08416:00121212
#08414:1200001200000012
#08312:00000013
#08318:0000120012120012
#0831a:12
#08512:00130013
#08518:0012000000120012
#0851a:0000001200000000
#0861b:00130013
#08616:0000001200000000
#08614:12
#08618:0000000000120000
#08712:00130013
#08718:0000120000000012
#08716:1200000000120000
#01918:0000000000260026
#01912:00000026
#02312:0000000000260026
#02318:00000026
#03212:24343434343434343434343434343434
#09112:0000260000260026
#09118:00260026
#09212:26000026
#09218:26000026
#09518:0000000000260026
#09512:00000026
#1041a:24343434343434343434343434343434
#00252:54
#0065a:64
#00954:00520000
#00856:00000052
#01052:54
#0105a:0000000000000064
#01152:0000000000000054
#01456:52000052
#01454:0000005200000000
#0145a:00000062
#01553:0022000000000000
#01557:0022000000000000
#01758:16
#01752:00160000
#01856:0000002600000000
#01852:66
#01858:46
#01958:00160000
#01952:00160000
#02054:0000002600000000
#02058:56000046
#02052:36000066
#02155:26
#02254:00260000
#02258:56
#02252:36
#02455:00000026000000000000000000000000
#02452:66
#02458:46
#02352:00160000
#02358:00160000
#0265a:14
#0275b:5363
#02952:0053
#02955:00000053
#01652:65656565
#01653:00000023000000230000002300000023
#03252:54
#0335a:24000014
#03358:0000005300000000
#03355:0000006300000000
#03352:00000014
#04256:0063
#04357:0053
#0445b:0000000000000053
#04558:0053000000530000
#0455b:0000005300000000
#04552:0000000000000064
#04655:0000240000000064
#04852:14000014
#0485a:0000001400000000
#0495a:24000014
#04958:0000005300000000
#04952:24000014
#04955:0000006300000000
#03552:24000014
#03555:0000006300000000
#0375a:24000014
#03758:0000005300000000
#03952:24000014
#03955:0000006300000000
#0415a:24000014
#04158:0000005300000000
#05052:54
#0525a:64
#05657:22
#05758:62
#05755:0063
#05855:6613
#0585b:0023
#05852:13
#05955:0013
#06052:0023
#06058:0013
#06055:56
#06158:0013
#06252:24
#06255:0013
#0625a:00000024
#06355:0013
#06458:0013
#06452:63
#06558:0000001400000000
#06554:14000014
#0665a:0014
#06752:0014
#06755:0054000000000000
#0685a:0014
#06855:0000000000000053
#06857:0064000000000000
#06958:0063000000630000
#06956:0000000000000064
#06952:0014
#0705a:0014
#07056:0000000000000054
#07152:0014
#0725a:14000014
#07252:0000001400000000
#07352:24000014
#07355:0000006300000000
#0735a:24000014
#07358:0000005300000000
#05158:0062000000000000
#0515b:0000006200000000
#05353:0000005200000000
#05356:0052000000000000
#08859:55555555
#0885a:00000023000000230000002300000023
#08952:16
#08958:00160000
#09054:0000002600000000
#09058:56
#09052:36
#09355:26
#09456:00260000
#09452:66
#09458:46
#09655:00000026000000000000000000000000
#09658:5600000000160016
#09652:3600001600000000
#09252:66000036
#09258:46000056
#09558:00160000
#09552:00160000
#09152:00160000
#09158:00160000
#09852:14
#09952:0053
#10552:24
#10555:0000006300000000
#10558:0000005300000000
#1045a:64
#10158:00000063
#1015b:0063
#0815a:00620000
#08157:0062
#08058:00000062
#07554:0000005200000000
#07754:0000005200000000
#07756:00000000000000000000002200000000
#07858:00000052
#08654:52
#08656:0000005200000000
#0865b:00000053
#08758:00520000
#08256:0000000000000052
#08358:0000000000000062
#10252:14000014
#10254:0000001400000000
#1035a:14000014
#10358:0000001400000000
#002320:14
#005330:0000002200000000
#003381:0000001200000000
#004381:22
#005360:0012
#006360:22
#0063a1:14
#0093b1:00220000
#006360:00000012
#007360:0022
#008360:00000012
#009340:00320000
#009360:0022
#009381:0012
#010381:22
#010320:14
#010330:0000000000000022
#0103a1:0000000000000014
#0113b1:0000000000000022
#011320:0000000000000014
#012330:0000000000000022
#0123a1:0000000000000012
#0133a1:0022000000000000
#013360:0012002200000000
#013381:0000001200220000
#013340:0000000000120022
#014360:12000032
#014340:0000003200000000
#015330:0052000000000000
#015360:0022
#0143a1:00000012
#015371:0052000000000000
#0153a1:0022
#018321:16000036
#018361:0000005600000000
#019321:00260000
#018380:00000016
#019380:00260000
#020380:16000026
#020340:0000005600000000
#020321:00000016
#021351:56
#021321:00260000
#022381:16003626
#022341:00560000
#022320:00000016
#023320:00260000
#022381:0000000000000016
#023381:00260000
#024321:1600002600000000
#024351:00000056000000000000000000000000
#024380:0000001600260000
#024321:0000000000160026
#024380:0000000000000016
#025380:0026000000000000
#0273b0:13
#027370:00230000
#0273b0:0013
#027370:00000023
#029320:13333300
#029350:0033003300003300
#030320:23
#032320:14343434343434343434343434343434
#033360:24
#0333a1:14000024
#033381:0000003300000000
#033350:0000001300000000
#033320:00000024
#035320:14000024
#035350:0000003300000000
#0373a0:14000024
#037380:0000003300000000
#039320:14000024
#039350:0000003300000000
#0413a0:14000024
#041380:0000003300000000
#042360:0013
#042320:00000023
#043370:0013
#0433b0:00000023
#0443b0:0000000000000013
#045380:0033000000330000
#0453b0:0000003300000023
#045321:0000000000000014
#046351:0000540000000034
#046321:0000000000343400
#047321:00005424
#0493a1:14000024
#049381:0000003300000000
#049320:14000024
#049350:0000003300000000
#0503a0:00123232
#050380:0000003200320032
#0513a0:32
#051380:0032000000002200
#0513b0:0000003200000000
#052340:00123232
#052360:0000003200320032
#053340:32
#053360:0032000000220000
#053330:0000003200000000
#056370:1232323232320000
#056360:00000024
#057380:12
#0573b0:0022
#057351:0013
#058321:23
#058350:16
#0583b0:0053
#059380:23
#060350:16
#060320:0053
#061350:23
#062320:14
#062350:0000002300000000
#0623a0:00000014
#063380:0023000000000000
#064320:13
#064350:00230000
#067350:0014000000000000
#067320:0000002400000000
#068370:0014000000000000
#0683a0:0000002400000000
#068350:0000000000000013
#069320:0023000000000000
#069381:0013000000000000
#0693b1:0000002300000000
#069381:0000000000130000
#0693b1:0000000000000023
#069360:0000000000000014
#070320:0024
#070360:0000000000000014
#0713a0:0024
#073320:14000024
#073350:0000003300000000
#0733a1:14000024
#073381:0000003300000000
#075341:0000001200000000
#075361:00000022
#077341:0000001200000000
#077361:00000000000000000000005200000000
#078341:22
#078381:00000012
#0793a1:00220000
#080381:00000012
#0813a1:00320000
#081371:0032
#0823a1:22
#082361:0000000000000012
#083321:00230000
#083381:0000000000000012
#0843b1:00230000
#086341:12000022
#086361:0000003200000000
#0863b0:00000013
#087380:00520000
#0873b0:00000023
#090380:16000036
#090340:0000005600000000
#091380:26
#090321:00000016
#091321:26
#092321:16
#092351:0026
#092381:00000016
#093351:56
#093381:00260000
#094321:1626
#094361:00560000
#094381:00000016
#095381:00260000
#094320:0000000000000016
#095320:00260000
#096380:1600002600000000
#096350:00000056000000000000000000000000
#096320:00000016
#097320:0026000000000000
#099320:0013
#099360:00000023
#1013b0:0013
#101380:00000033
#1023b0:23
#1043a0:14343434343434343434343434343434
#105360:24
#105321:14000024
#105351:0000003300000000
#105380:0000001300000000
#1053a0:00000024
#016920:15555555
#016930:00535353005353530053535300535353
#017920:25
#050920:14
#050930:0052000052005200
#051930:52525252
#052930:22
#0529a1:14
#0529b1:0052000052005200
#0539b1:52525252
#0549b1:22
#070961:0000000000140000
#070921:0000000000000024
#088991:15555555
#0889a1:00535353005353530053535300535353
#089991:25
