This file was generated by Ched 2.7.0.0.
#TITLE ""
#ARTIST ""
#DESIGNER ""
#DIFFICULTY 0
#PLAYLEVEL
#SONGID ""
#WAVE ""
#WAVEOFFSET 0
#JACKET ""
#REQUEST "ticks_per_beat 480"
#00002: 4
#BPM01: 174
#00008: 01
#TIL00: ""
#VOLUME: ""
#HISPEED 00
#MEASUREHS 00
#02715:00130000
#0271b:13
#02712:0013
#02718:0000001300000000
#02716:00000013
#02615:0000000000000013
#0261a:14
#02612:14
#00215:13000013
#0021b:13
#00212:00130000
#00218:0000001300130013
#00315:0013000000000000
#00418:13000013
#00412:13
#0041b:00130000
#00415:0000001300130013
#00518:0013000000000013
#00618:13
#00615:0000131300000000
#0061b:0000000000130000
#00912:00130000
#00915:0013
#00715:0000000000000013
#00815:13
#00818:0000131300000000
#00812:0000000000130000
#01018:1300130000003313
#01015:0000001300000000
#0101b:0013
#01010:41
#01215:1300130000003313
#01218:0000001300000000
#01212:0013
#0121b:13
#01315:0000001300000000
#01312:0013000000000000
#01318:0000000000000013
#01415:13000013
#01418:0000001300000000
#01518:0000000000130000
#01515:00000013
#0151b:0000000000000013
#01612:0013
#01618:0000000000000013
#01718:0013000000002600
#01715:23230000
#01815:0000001600000000
#01812:26
#01810:41
#02015:00000000001600000000000000000000
#02215:0000001600000000
#02218:26
#02415:0016000000000000
#02418:0000000000260000
#02412:0000000000000026
#02518:00230013
#0251b:0023000000000000
#02515:0000002300000000
#02512:0023
#02915:00130000
#02912:1313
#0291b:0000001300000000
#02918:0013000000000000
#02818:0000000000000013
#03015:0000130013000013
#03018:0000001300001300
#0301a:24
#0311b:13
#03115:0000001300000000
#03112:00000013
#03117:00000023
#03216:00130000
#0321b:00130000
#0331b:13
#03312:13
#03415:00130000
#03418:0000000000130000
#03412:23000013
#0341b:23
#03410:41
#03512:0000001300000000
#03516:13
#03517:0000001300000000
#0351b:13
#03612:13
#0361b:13000013
#03618:00130000
#03615:0000000000130000
#0371b:0000001300000000
#03717:13
#03716:0000001300000000
#03712:13
#0381b:13
#03812:13000013
#03815:00130000
#03818:0000000000130000
#04012:13
#0401b:13
#04018:00130013
#04015:0013
#03912:0000001300000000
#03916:13
#03917:0000001300000000
#0391b:13
#0411b:0000001300000000
#04117:13
#04116:0000001300000000
#04112:13
#04212:13
#0421b:13
#04218:00130000
#04215:0000001300000013
#04318:1300001300000013
#04312:0013000000000000
#04415:1300001300130000
#0441b:0013000000000000
#04418:00001313
#04412:0000000000000013
#04515:0013000000130000
#04512:0000001300000013
#04517:0000000000000023
#04617:0000000000000013
#04612:0000000000000013
#04818:00131313
#04815:0000001300130013
#04812:23
#0481b:23
#0491b:13
#04912:13
#05012:1300000000530000
#0501b:13
#0501f:11
#05015:00530000
#05014:0000005300000053
#05013:00005353
#0511b:13
#05118:0033000000000000
#05115:53
#0521b:1300000000530000
#05212:13
#05218:00530000
#05219:0000005300000053
#0521a:00005353
#05312:1300000000130000
#05315:0033001300000000
#05318:53
#05418:1313
#05415:00130013
#0551b:1313
#05512:00130013
#05618:13131313
#05615:0013001300130013
#05816:00000013
#0581b:00000013
#05812:23
#05817:23
#0581f:21
#06017:00000000000000000000001300000000
#06012:00000000000000000000001300000000
#06315:0000000013000013
#06318:00000000000000000000130000000013
#06512:00130013
#06518:00130013
#0651b:0013
#06515:0013
#06612:2400001300000013
#0661b:0013
#0661a:24
#06717:13
#06712:0013000013000000
#0671b:0000001300000013
#06816:13
#0681b:0013000000001300
#06812:0000001300000013
#06818:0013
#06815:0000000000130000
#0691b:0013000000000000
#06918:0000001300000000
#06915:0000000000130000
#06912:0000000000000023
#06917:0000000000000023
#07012:0000000000000013
#07017:0000000000000013
#0731b:13
#07312:13
#07215:00131313
#07218:0000001300130013
#07212:23
#0721b:23
#09918:00130000
#09912:13
#0991b:0013
#09915:0000001300000000
#09917:00000013
#09818:0000000000000013
#09812:14
#0981a:14
#07418:1300000000130013
#07412:13000013
#0741b:00130000
#07415:0000001300000000
#07410:41
#07515:0013000000000000
#07615:1300000000130013
#0761b:13000013
#07612:00130000
#07618:0000001300000000
#07712:0000000000000013
#07718:0013000000000000
#07812:13
#07818:0000131300000000
#07815:0000000000131300
#0811b:00130000
#08118:0013
#0791b:00000013
#07915:0000000000000013
#0801b:13
#08015:0000131300000000
#08018:0000000000130000
#08218:00130000
#08212:0013
#08215:1300000000333313
#08418:1300130000003313
#08415:0000001300000000
#0841b:0013
#08412:13
#08518:0000001300000000
#0851b:0013000000000000
#08515:0000000000000013
#08618:13000013
#08615:0000001300000000
#08715:0000000000130000
#08718:00000013
#08712:0000000000000013
#0881b:0013
#08815:0000000000000013
#08915:0013000000000000
#08918:23230000
#08912:00000026
#09015:0000001600000000
#09018:26
#09010:41
#09215:00000000001600000000000000000000
#09415:0000001600000000
#09412:26
#09615:0016000000000000
#09612:0000000000260000
#09618:0000000000000026
#09715:00230013
#09712:0023000000000000
#09718:0000002300000000
#0971b:0023
#10118:00130000
#1011b:1313
#10112:0000001300000000
#10115:0013000000000000
#10015:0000000000000013
#10218:0000130013000013
#10215:0000001300001300
#10212:24
#10312:13
#10318:0000001300000000
#1031b:00000013
#10316:00000023
#10417:00130000
#10412:00130000
#10512:13
#1051b:13
#01918:0000000000260026
#01912:00000026
#02112:00260026
#02118:0026
#02312:0000000000260026
#02318:00000026
#05718:23
#05715:0023
#0591b:0000000000002323
#05916:0000000000002323
#05910:41
#09112:0000000000260026
#09118:00000026
#09318:00260026
#09312:0026
#09518:0000000000260026
#09512:00000026
#06418:0053
#06419:0000000000530000
#0641a:00000053
#0641b:0000000000000053
#00952:00630000
#00955:0063
#0105b:0053
#01058:0000000000000053
#01252:0063
#01255:0000000000000063
#01355:0000006300000000
#01352:0053000000000000
#01455:53000053
#01458:0000006300000000
#0155b:0000000000000063
#01652:0063
#01852:66
#01855:0000002600000000
#01952:00160000
#01958:0000000000000056
#02055:00000000002600000000000000000000
#02058:00000016
#02255:0000002600000000
#02258:56
#02358:00160000
#02352:0000000000000066
#02455:0026000000000000
#02752:0053
#02756:00000063
#0265a:14
#02652:14
#02852:13
#02952:0053
#02956:00000013
#03155:0000005300000000
#0315b:53
#03152:00000053
#03157:00000053
#03256:00230000
#0325b:00230000
#0335b:53
#03352:63
#03556:53
#03552:0000005300000000
#03557:0000005300000000
#0355b:53
#0375b:0000006300000000
#03757:63
#03756:0000006300000000
#03752:63
#03455:00130000
#03452:00000013
#03658:00130000
#0365b:00000013
#03855:00130000
#03852:00000013
#04058:00130013
#04055:0013
#03952:0000005300000000
#03956:53
#03957:0000005300000000
#0395b:53
#0415b:0000006300000000
#04157:63
#04156:0000006300000000
#04152:63
#04352:0013000000000000
#0445b:0013000000000000
#04452:0000000000000063
#04555:0053000000530000
#04552:0000006300000063
#04557:0000000000000053
#04652:0000000000000023
#04657:0000000000000023
#0495b:53
#04952:63
#0515b:53
#05352:6300000000630000
#05355:0000006300000000
#05852:53
#05856:00000023
#0585b:00000023
#05857:53
#06057:00000000000000000000002300000000
#06052:00000000000000000000002300000000
#0595b:0000000000000063
#05956:0000000000000063
#06252:0000001300000000
#0635b:0013000000000000
#0665b:0053
#06752:0013000063000000
#0685b:0013000000000000
#07052:0000000000000023
#07057:0000000000000023
#06952:0000000000000053
#06957:0000000000000053
#0735b:53
#07352:63
#0815b:00530000
#08158:0053
#08252:0063
#08255:0000000000000063
#0845b:0053
#08458:0000000000000053
#08558:0000005300000000
#0855b:0063000000000000
#08658:63000063
#08655:0000005300000000
#08752:0000000000000053
#0885b:0053
#09055:0000002600000000
#09058:56
#09255:00000000002600000000000000000000
#09252:00000016
#09455:0000002600000000
#09452:66
#09655:0026000000000000
#0995b:0063
#09957:00000053
#09852:14
#0985a:14
#1015b:0063
#10157:00000013
#10352:63
#10358:0000006300000000
#1035b:00000063
#10356:00000063
#10457:00230000
#10452:00230000
#10552:63
#1055b:53
#09152:0000000000000066
#09158:00160000
#09558:0000000000000056
#09552:00160000
#1005b:13
#07855:00000053
#0033b0:0000001300002300
#005320:0000001300002300
#0063b0:00000013
#0073b0:0023
#008320:00000013
#009320:00330000
#009350:0033
#010320:23
#0103b0:0013
#010380:0000000000003333
#0113b0:0023
#012320:0013
#012350:0000000000003333
#013320:0033000000230000
#013350:0000003300000000
#014350:13
#014320:00230000
#014380:0000001300000000
#0143b0:0000000000230000
#014350:00000013
#015320:00230000
#0153b0:0000000000000013
#016380:0000002300000000
#016320:0013
#016350:00000023
#018320:16000036
#018350:0000005600000000
#019320:00260000
#019380:0000000000000016
#020350:00000000005600000000000000000000
#020380:00000026
#022380:1600000000003636
#022350:0000005600000000
#023380:00260000
#023320:0000000000000016
#024350:0056000000000000
#024320:0000002600000000
#027320:0013
#027360:00000033
#028320:23
#029320:0013
#029360:00000023
#0313b0:13
#031380:0000002300000000
#031351:0000001300000000
#031321:00000033
#032361:00530000
#032321:00000023
#031370:00000013
#0323b0:00530000
#032370:00000023
#0333b0:13
#033380:0000003300002300
#033321:13
#033351:0000003300002300
#035361:13000023
#035321:0000003300000000
#0353b0:13000023
#035370:0000003300000000
#037370:13000023
#0373b0:0000003300000000
#037321:13000023
#037361:0000003300000000
#039361:13000023
#039321:0000003300000000
#0393b0:13000023
#039370:0000003300000000
#041370:13000023
#0413b0:0000003300000000
#041321:13000023
#041361:0000003300000000
#042381:0013
#0423b1:00000023
#043351:0013
#043321:00000023
#044321:0000000000000013
#045351:0033000000330000
#045321:0000003300000033
#046361:0000000000330000
#046341:00000033
#046321:0000000000000033
#047361:00000023
#045370:0000000000000013
#0463b0:0000000000330000
#046390:00000033
#046370:0000000000000033
#0473b0:00000023
#0493b0:13
#049380:0000003300002300
#049321:13
#049351:0000003300002300
#0513b1:13
#051381:0033003300002300
#053321:1300000000330000
#053351:0033003300000023
#057381:1323
#058321:13
#058361:00000053
#059321:0023
#058370:13
#0583b0:00000053
#059370:0023
#0593b0:0000000000000013
#060370:00000000000000000000005300000000
#0613b0:0023
#059361:0000000000000013
#060321:00000000000000000000005300000000
#061361:0023
#062321:1300002300000000
#0623b1:00000013
#0633b1:0023000000000000
#064321:1300002300000000
#0663b1:0013
#066371:00000023
#067321:0013
#067361:00000023
#069321:0000000000000013
#070361:0000000000330000
#070341:00000033
#070321:0000000000000033
#071361:00000023
#069370:0000000000000013
#0703b0:0000000000330000
#070390:00000033
#070370:0000000000000033
#0713b0:00000023
#0733b0:13
#073380:0000003300002300
#073321:13
#073351:0000003300002300
#075351:0000001300002300
#077381:0000001300002300
#078351:00000013
#079321:0023
#080381:00000013
#0813b1:00330000
#081381:0033
#0823b1:23
#082321:0013
#082351:0000000000333333
#083321:0023
#0843b1:0013
#084381:0000000000003333
#0853b1:0033000000230000
#085381:0000003300000000
#086381:13
#0863b1:00230000
#086351:0000001300000000
#086321:0000000000230000
#086381:00000013
#0873b1:00230000
#087321:0000000000000013
#088351:0000002300000000
#0883b1:0013
#088381:00000023
#090381:16000036
#090351:0000005600000000
#091381:00260000
#091321:0000000000000016
#092351:00000000005600000000000000000000
#092321:00000026
#094321:1600000000003636
#094351:0000005600000000
#095321:00260000
#095381:0000000000000016
#096351:0056000000000000
#096381:0000002600000000
#0993b1:0013
#099371:00000033
#1003b1:23
#1013b1:0013
#101371:00000023
#103321:13
#103351:0000002300000000
#103380:0000001300000000
#1033b0:00000033
#104370:00530000
#1043b0:00000023
#103361:00000013
#104321:00530000
#104361:00000023
#105321:13
#105351:0000003300002300
#1053b0:13
#105380:0000003300002300
#050950:00130000
#050920:0000000000530000
#051950:23
#052980:00130000
#0529b0:0000000000530000
#053980:23
#064980:0013
#0649b0:0000000000000023
