This file was generated by Ched 2.7.0.0.
#TITLE ""
#ARTIST ""
#DESIGNER ""
#DIFFICULTY 0
#PLAYLEVEL
#SONGID ""
#WAVE ""
#WAVEOFFSET 0
#JACKET ""
#REQUEST "ticks_per_beat 480"
#00002: 4
#BPM01: 174
#00008: 01
#TIL00: ""
#VOLUME: ""
#HISPEED 00
#MEASUREHS 00
#0211a:00140000
#02114:0014
#02118:00000014
#02212:00000014
#02214:0000000000000034
#0241a:00000014
#03318:0014
#03314:00000014
#03412:00140000
#03418:24000014
#03410:41
#03512:00140000
#03518:00000014
#03614:14000014
#0361a:00140000
#0371a:00140000
#03714:00000014
#03818:14
#03812:00140000
#0381a:00000014
#03912:00140000
#0391a:00000014
#04014:1414
#04018:00140014
#04112:1414
#0411a:00140014
#0421a:00140000
#04214:24000014
#0431a:00140000
#04314:00000014
#04418:14000014
#04412:00140000
#04512:00140000
#04518:00000014
#04614:14
#0461a:00140000
#04612:00000014
#0471a:00140000
#04712:00000014
#05012:14
#05014:0014
#0501f:11
#05414:14
#05412:0014
#0521a:14
#05218:0014
#05618:14
#0561a:0014
#0581a:0014
#05814:24
#0581f:21
#05912:00140000
#05910:41
#06012:0014
#0611a:00140000
#0621a:0014
#06214:00000014
#0631a:14
#06312:0014
#06318:00000014
#06412:14
#0641a:0014
#06414:00000014
#06614:0014
#06718:1414
#06714:00140000
#06812:14
#06818:0014
#06914:1414
#06918:00140000
#0701a:14
#07012:0014
#07118:1414
#07114:00140000
#0821a:14
#08214:0014
#08412:14
#08418:0014
#0861a:14
#08614:0014
#08718:14
#08712:0014
#09312:00140000
#09318:0014
#09314:00000014
#0941a:00000014
#09418:0000000000000034
#09612:00000014
#07212:24
#0721a:24
#04818:24
#01814:24
#01810:41
#01918:00240000
#02012:00000024
#09018:24
#09010:41
#09114:00240000
#0921a:00000024
#03214:00343434
#10418:00343434
#07410:41
#01010:41
#02612:54545454
#02712:54545400
#0281a:54545454
#0291a:54545400
#0981a:54545454
#0991a:54545400
#10012:54545454
#10112:54545400
#01854:14
#01958:00140000
#02052:00000014
#02252:00000054
#0245a:00000064
#04958:14
#05054:0024
#05052:64
#05454:54
#05452:0024
#0525a:54
#05258:0024
#05658:64
#0565a:0024
#05758:0014
#05854:14
#06058:14
#06254:14
#0665a:14
#07352:14
#0735a:14
#09058:14
#0945a:00000064
#09652:00000054
#09154:00140000
#0925a:00000014
#0023a0:14
#0033a0:24
#004320:14
#005320:24
#006380:14
#007380:24
#008340:14
#009340:24
#010380:14
#0113a0:24
#012340:14
#013320:24
#0143a0:14
#015380:24
#016320:14
#017340:34340000
#018340:24
#018380:00000014
#019380:00240000
#020320:14000024
#022320:14000034
#022340:0000000000000034
#023340:0024
#0243a0:14000034
#025380:0024
#030340:14
#030330:0000003400000000
#030320:00000034
#031320:34
#031330:0000003400000000
#031340:00000034
#032340:34343434
#033320:26
#048380:1400003400003400
#049380:24
#050320:14
#050340:0054
#051320:3424
#0523a0:14
#052380:0054
#0533a0:3424
#054340:14
#054320:0054
#055340:3424
#056380:14
#0563a0:0054
#057380:3424
#059380:0014
#060380:24
#061340:0014
#062340:24
#0653a0:1400003400003400
#0663a0:24
#072320:1400003400003400
#073320:24
#0723a1:1400003400003400
#0733a1:24
#074381:14
#0753a1:3424
#076341:14
#077321:3424
#0783a1:14
#079381:3424
#080321:14
#081341:3424
#0833a1:1424
#085321:1424
#0883a1:14
#089381:34340000
#090381:24
#090341:00000014
#091341:00240000
#0923a1:14000024
#0943a1:14000034
#094381:0000000000000034
#095381:0024
#096321:14000034
#097341:0024
#102381:14
#102391:0000003400000000
#1023a1:00000034
#1033a1:34
#103391:0000003400000000
#103381:00000034
#104381:34343434
#105381:3600003600002600
#026920:14
#027920:0024
#0289a0:14
#0299a0:0024
#0989a0:14
#0999a0:0024
#100920:14
#101920:0024
