This file was generated by Ched 2.7.0.0.
#TITLE ""
#ARTIST ""
#DESIGNER ""
#DIFFICULTY 0
#PLAYLEVEL
#SONGID ""
#WAVE ""
#WAVEOFFSET 0
#JACKET ""
#REQUEST "ticks_per_beat 480"
#00002: 4
#BPM01: 126
#00008: 01
#TIL00: ""
#VOLUME: ""
#HISPEED 00
#MEASUREHS 00
#0021a:14
#0031a:14
#00414:14
#00410:41
#00514:14
#00618:14
#00718:14
#00812:14
#00912:14
#01212:14
#0121a:0014
#01210:41
#01312:14
#01418:14
#01412:0014
#01518:14
#01614:14
#0161a:0014
#01714:14
#01818:14
#01812:0014
#01810:41
#0191a:14
#02014:14
#0201a:0014
#02112:14
#0221a:14
#02212:0014
#02318:14
#02412:14
#0241a:0014
#03518:0016
#03512:26
#0351f:21
#03612:16
#03618:0016
#03712:16
#03718:0016
#03710:41
#03812:16
#03818:0016
#03912:1616
#04018:1616
#05114:14
#0511a:0014
#05110:41
#05318:14
#05312:0014
#0261f:11
#04310:41
#0103a0:14
#0113a0:24
#025340:1434
#026340:34
#027320:34
#028340:34
#029340:24
#0303a0:14
#031380:34
#0323a0:3400000000000034
#0333a0:0000003400000000
#0343a0:24
#041320:1626
#042380:1626
#043320:1636
#044320:3626
#045380:1636
#046380:3626
#047320:1626
#048380:1626
#049320:1626
#050380:1626
#052340:1424
#054380:1434
#055380:34
#0583a0:34000024
