This file was generated by Ched 2.7.0.0.
#TITLE ""
#ARTIST ""
#DESIGNER ""
#DIFFICULTY 0
#PLAYLEVEL
#SONGID ""
#WAVE ""
#WAVEOFFSET 0
#JACKET ""
#REQUEST "ticks_per_beat 480"
#00002: 4
#BPM01: 126
#00008: 01
#TIL00: ""
#VOLUME: ""
#HISPEED 00
#MEASUREHS 00
#00112:0013
#00118:00000013
#00115:000000000000000000000000003333333333000000000000
#0011b:000000000000000000000000000000000000003333333333
#00217:0000001300000000
#00213:0013
#00218:0000000000130000
#00219:000000000000000000000000000000000000000000000000000000000000000000000000000000000000005300000000000000000000000000000000000000000000000000000000000000000000000000000000130000000000000000000000
#00215:23
#0021b:230000000000000000000000000000000000000000000000000000000000000000000000000000000000000000000000000000000000000000000000000000000000000000000000000000000000000000000000000000000000005300000000
#00212:00230000
#00214:00000023
#0021a:000000000000000000000000000000000000000000000000000000000000000000000000000000000000000000000000000000000000000000000000000000000000005300000000000000000000000000000000000000000000000000000000
#0041a:0013
#00416:0000001300000000
#00415:0000000000130000
#00414:000000000000000000000000000000000000000000000000000000000000000000000000000000000000005300000000000000000000000000000000000000000000000000000000000000000000000000000000130000000000000000000000
#00418:23
#00412:230000000000000000000000000000000000000000000000000000000000000000000000000000000000000000000000000000000000000000000000000000000000000000000000000000000000000000000000000000000000005300000000
#0041b:00230000
#00419:00000023
#00410:41
#00413:000000000000000000000000000000000000000000000000000000000000000000000000000000000000000000000000000000000000000000000000000000000000005300000000000000000000000000000000000000000000000000000000
#00613:0013
#00617:0000001300000000
#00618:0000000000130000
#00619:000000000000000000000000000000000000000000000000000000000000000000000000000000000000005300000000000000000000000000000000000000000000000000000000000000000000000000000000130000000000000000000000
#00615:23
#0061b:230000000000000000000000000000000000000000000000000000000000000000000000000000000000000000000000000000000000000000000000000000000000000000000000000000000000000000000000000000000000005300000000
#00612:00230000
#00614:00000023
#0061a:000000000000000000000000000000000000000000000000000000000000000000000000000000000000000000000000000000000000000000000000000000000000005300000000000000000000000000000000000000000000000000000000
#00315:0000000000000013
#00518:0000000000000013
#00715:0000000000000013
#0081a:0013
#00816:0000001300000000
#00815:0000000000130000
#00814:000000000000000000000000000000000000000000000000000000000000000000000000000000000000005300000000000000000000000000000000000000000000000000000000000000000000000000000000130000000000000000000000
#00818:23
#00812:230000000000000000000000000000000000000000000000000000000000000000000000000000000000000000000000000000000000000000000000000000000000000000000000000000000000000000000000000000000000005300000000
#0081b:00230000
#00819:00000023
#00813:000000000000000000000000000000000000000000000000000000000000000000000000000000000000000000000000000000000000000000000000000000000000005300000000000000000000000000000000000000000000000000000000
#01018:0000120000000012
#0101b:1313
#0111a:0012000000000000
#01118:0000001200000000
#0111b:00001323
#01112:00000023
#01212:00130023
#01218:2300000000130000
#01215:2313
#0121b:00230013
#01210:41
#01314:13
#01312:00130023
#01318:0013
#01315:0000000000130000
#0131b:00230013
#01319:13
#01418:1300001300130000
#01412:1300000013000013
#01415:00130013
#0141b:00230023
#01515:1300001300130013
#0151b:1313
#01518:00130013
#01512:00230023
#01615:0013130000000000
#01618:0000001313000013
#0161b:000000000000000000000000000000000000000000000000130000000000000000000000000000000000000000000000000000000000000000000000000000000000001300000000000000000000000000000000000000000000000000000000
#01612:0000000000000013
#0171b:0013000000001300
#01719:00130000
#01714:00130000
#01712:0000001300000000
#01717:0000001300000000
#01715:0000000000000013
#01812:13000023
#0181b:00231300
#01815:000000000000000000000000000000000000001300000000000000000000000000000000130000000000000000000000130000000000000000000000000000000000000000000000000000000000000000000000000000000000000000000000
#01818:240000000000000000000000000000000000000000000000000000000000000000000000000000000000000000000000000000000000000000000000000000000000001300000000000000000000000000000000130000000000000000000000
#01810:41
#01918:1300000013130000
#0191b:00230013
#01915:000000000000000000000000000000000000001300000000000000000000000000000000000000000000000000000000000000000000000000000000000000000000000000000000000000000000000000000000130000000000000000000000
#01912:13000023
#02012:130000000000000000000000000000000000000000000000000000000000000000000000000000000000000000000000130000000000000000000000130000000000000000000000000000000000000000000000000000000000001300000000
#0201b:000000000000000000000000000000000000000000000000130000000000000000000000000000000000000000000000130000000000000000000000000000000000000000000000000000000000001300000000000000000000000000000000
#02018:130000000000000000000000000000000000000000000000000000000000000000000000000000000000000000000000000000000000000000000000000000000000001300000000000000000000000000000000000000000000000000000000
#02015:00230023
#02112:0013000013000000
#02118:000000000000001300000000000000000000000000000000000000000000000000000000130000000000000000000000130000000000000000000000000000000000000000000000000000000000000000000000130000000000000000000000
#0211b:000000000000000000000000000000000000001300000000000000000000000000000000000000000000000000000000000000000000000000000000000000000000000000000000130000000000000000000000000000000000000000000000
#02115:00230023
#02318:000000000000000000000000000000000000001300000000000000000000000000000000000000000000000000000000000000000000000000000000000000000000000000000000000000000000000000000000130000000000000000000000
#02315:1300000013130000
#02312:00230013
#0231b:13000023
#02415:130000000000000000000000000000000000000000000000000000000000000000000000000000000000000000000000000000000000000000000000000000000000001300000000000000000000000000000000000000000000000000000000
#0241b:1300000013130013
#02412:000000000000000000000000000000000000000000000000130000000000000000000000000000000000000000000000130000000000000000000000000000000000000000000000000000000000002300000000000000000000000000000000
#02418:00230023
#0251b:13000013
#02518:00131300
#02512:00130013
#02515:13
#02616:12
#0261f:11
#02718:12
#02816:12
#02916:12
#02918:12
#03017:00130000
#03015:13
#0301b:23
#03116:00130000
#03118:13
#03215:1313000013001300
#03218:0000131300130026
#03417:0000001200000000
#03618:00001313
#03617:0013000000000000
#03616:00130000
#03615:0000000000130000
#0361b:0000230000000013
#03612:00000023
#03516:0000000000000013
#03517:23
#03512:23
#0351f:21
#03818:0000000000130000
#03815:00001313
#03812:0000230000000013
#03816:0013000000000000
#03817:00130000
#0381b:00000023
#04018:0013000013000013
#04016:00130000
#04015:0000000000130000
#0401b:00230013
#04012:00000023
#03916:0000000000130013
#0391b:0013000000000000
#03912:23000023
#03917:23230000
#04115:130000000000000000000000000000000000000000000000000000000000000000000000000000000000000000000000000000000000001300000000000000000000000000000000000000000000000000000000000000000000000000000000
#0411b:130000000000000000000000000000000000000000000000000000000000000000000000000000000000000000000000000000000000001300000000000000000000000000000000000000000000000000000000000000000000000000000000
#04112:000000000000000000000000000000000000001300000000000000000000000000000000000000000000000000000000000000000000000000000000000000000000000000000000000000000000000000000000130000000000000000000000
#04118:000000000000000000000000000000000000001300000000000000000000000000000000000000000000000000000000000000000000000000000000000000000000000000000000000000000000000000000000000000000000000000000000
#04113:000000000000005300000000000000000000000000000000000000000000001300000000000000000000000000000000000000000000000000000000000000000000000000000000000000000000000000000000000000000000000000000000
#04119:000000000000005300000000000000000000000000000000000000000000001300000000000000000000000000000000000000000000000000000000000000000000000000000000000000000000000000000000000000000000000000000000
#04114:000000000000000000000000000000000000000000000000000000000000000000000000000000000000001300000000000000000000000000000000000000000000000000000000000000000000000000000000000000000000000000000000
#0411a:000000000000000000000000000000000000000000000000000000000000000000000000000000000000001300000000000000000000000000000000000000000000000000000000000000000000000000000000000000000000000000000000
#04216:1200000000000023
#04215:00130000
#04214:0014
#04213:00000015
#04218:12
#0421b:0000000000000013
#04312:0000131300000000
#0431b:0000000000001313
#04317:0000002300000000
#04316:0000000000000023
#04310:41
#04412:0000130000001313
#0441b:0000001300000000
#04415:0013
#04418:0000000000130000
#04417:0000000000000023
#04616:0000001300000000
#04619:0013
#04614:0000000000130000
#04617:0000000000001313
#0461b:00130000
#04612:0000000000000023
#04716:0000131300000000
#04717:0000000000001313
#0471b:0000002300000000
#04712:0000000000000023
#0481b:0000001300000023
#04814:0013
#04819:0000000000130000
#04812:00000013
#04816:0000130000000013
#04917:0000131300000000
#04916:00000013
#04912:0000002300000000
#0491b:0000000000000023
#05018:1400002400000000
#0501a:000000000000000000000000000000000000001400000000000000000000000000000000000000000000000000000000000000000000002400000000000000000000000000000000000000000000000000000000000000000000000000000000
#05012:2400001400000000
#05014:000000000000000000000000000000000000002400000000000000000000000000000000000000000000000000000000000000000000001400000000000000000000000000000000000000000000000000000000000000000000000000000000
#05016:00000024
#0451b:0000131300000000
#04512:0000000000001313
#04516:0000002300000000
#04517:0000000000000023
#05116:0000140000001424
#05112:24140014
#0511a:0000002400000014
#05110:41
#05217:00140000000000000000000000000000
#05212:00140000
#05214:0000001400000000
#05216:0000000014000024
#05218:0000000000140000
#0521a:00000014
#05316:0000140000001424
#05312:0000002400000014
#0531a:00140014
#05415:00140000000000000000000000000000
#05412:00140000
#0541a:00140000
#05416:00003232
#05418:00003232
#05518:12
#0551a:00120000
#05516:0012
#05514:00000012
#05618:12
#0561a:00120000
#05616:0012
#05614:00000012
#05718:12
#0571a:00120000
#05716:0012
#05714:00000012
#0221b:13000023
#02212:00231300
#02218:000000000000000000000000000000000000001300000000000000000000000000000000130000000000000000000000130000000000000000000000000000000000000000000000000000000000000000000000000000000000000000000000
#02215:000000000000000000000000000000000000000000000000000000000000000000000000000000000000000000000000000000000000000000000000000000000000001300000000000000000000000000000000130000000000000000000000
#02214:24
#03717:0000000000000013
#03716:23
#0371b:23
#03710:41
#0091a:24
#00913:00000024000000000000000000000000
#00919:0000002400000000
#00914:00000000000000000024000000000000
#00918:00000024
#03312:0000002600000000
#00255:13
#0025b:13
#00152:0023
#00158:00000063
#00458:13
#00452:13
#00655:13
#0065b:13
#00755:00130000
#00758:00000013
#00858:13
#00852:13
#0095a:14
#00953:00000014000000000000000000000000
#00959:0000001400000000
#00954:00000000000000000014000000000000
#00958:00000014
#0105b:0013
#0115b:0013
#01255:13
#01652:0000000000000053
#01658:0000000000000013
#01752:0000005300000000
#01757:0000005300000000
#01555:0000000000000013
#01858:14
#02152:0013
#02052:13
#0205b:00130000
#0245b:13
#02452:00130000
#0255b:13000023
#02558:00135300
#02555:5313
#02552:00230013
#02656:22
#02652:0012
#02758:22
#0275c:0012
#02856:22
#02852:0012
#02956:22
#02958:22
#0295c:0012
#02952:0012
#03057:00230000
#0305b:0043
#03055:63
#03156:00230000
#03152:0033
#03158:63
#03258:0000000000000046
#03352:0000003600000000
#03457:0000002200000000
#03454:00000018
#03552:00000013
#03557:00130000
#03556:0000000000000053
#03657:0053000000000000
#03656:00530000
#0365b:00130000
#03652:00000013
#0385b:00000013
#03856:0063000000000000
#03857:00630000
#03852:00130000
#03956:0000000000000053
#03952:00000013
#03957:00130000
#04058:0053000000000000
#04056:00530000
#0405b:00130000
#04052:00000013
#04155:000000000000000000000000000000000000000000000000000000000000000000000000000000000000000000000000000000000000002300000000000000000000000000000000000000000000000000000000000000000000000000000000
#0415b:000000000000000000000000000000000000000000000000000000000000000000000000000000000000000000000000000000000000002300000000000000000000000000000000000000000000000000000000000000000000000000000000
#04154:000000000000000000000000000000000000000000000000000000000000000000000000000000000000006300000000000000000000000000000000000000000000000000000000000000000000000000000000000000000000000000000000
#0415a:000000000000000000000000000000000000000000000000000000000000000000000000000000000000006300000000000000000000000000000000000000000000000000000000000000000000000000000000000000000000000000000000
#04258:22
#0425b:0000000000000053
#04256:0000000000000013
#04352:0000006300000000
#0435b:0000000000000053
#04357:0000001300000000
#04356:0000000000000013
#04657:0000000000000053
#04652:0000000000000013
#04756:0000005300000000
#04757:0000000000000053
#0475b:0000001300000000
#04752:0000000000000013
#04856:0000000000000063
#0485b:0000000000000013
#04957:0000006300000000
#04952:0000001300000000
#0495b:0000000000000013
#05056:00000014
#04452:0000000000000063
#04457:0000000000000013
#0455b:0000005300000000
#04552:0000000000000063
#04556:0000001300000000
#04557:0000000000000013
#05156:0000640000006414
#05152:14640064
#0515a:0000001400000054
#05257:00240000000000000000000000000000
#05256:0000000000000014
#05356:0000540000005414
#05352:0000001400000064
#0535a:00540054
#05455:00240000000000000000000000000000
#0545a:00540000
#05452:00540000
#05858:00000012
#05856:00000012
#05558:22
#0555a:00620000
#05556:0022
#05554:00000052
#05658:22
#0565a:00620000
#05656:0022
#05654:00000052
#05758:22
#0575a:00620000
#05756:0022
#05754:00000052
#02254:14
#03757:0000000000000063
#03756:00130000
#0375b:00000013
#001320:0013
#001350:000000000000000000000000003333333333230000000000
#001381:00000013
#0013b1:000000000000000000000000000000000000003333333333
#0023b1:23
#003351:13230000
#0033b0:0013230000000000
#003320:00001323
#003381:0000000000132300
#005381:13230000
#005320:0013230000000000
#0053b0:00001323
#005351:0000000000132300
#007351:13230000
#0073b0:0013230000000000
#007380:00001323
#007321:0000000000132300
#010351:13
#011351:0023
#0153b1:0000000000000013
#0163b1:0023000000000000
#016321:0000000013000033
#016351:000000000000000000000000000000000000000000000000000000000000000000000000000000000000000000000000000000000000000000000000000000000000003300000000000000000000000000000000000000000000000000000000
#017361:0023000000000000
#017371:0000001300000000
#0173b1:0000000000230000
#017320:0000001300000000
#017360:0000000000230000
#019350:0000001300230000
#023380:0000001300230000
#025350:1323
#025320:00530000
#025381:0013
#0253b1:00000053
#026381:33
#027381:52
#0273c1:0022
#026360:12
#026320:0022
#027350:13
#028360:52
#028320:0022
#028381:13
#029381:52
#0293c1:0022
#029360:12
#029320:0022
#030350:13
#031320:23
#030371:00130000
#0303b1:0023
#031381:13
#0323b1:23
#031360:00130000
#031320:0023
#034371:1200005200000000
#034341:00000028
#035371:13230000
#0353b1:0033000000000000
#035320:13333323
#035360:0033000000330000
#035371:00001333
#0353b1:0000000000330023
#035360:0000000000000013
#036320:0023000000000000
#036371:0013000000000000
#0363b1:00230000
#036360:00130000
#036320:0023
#037360:13230000
#037320:0033000000000000
#0373b1:13333323
#037371:0033000000330000
#037360:00001333
#037320:0000000000330023
#037371:0000000000000013
#0383b1:0023000000000000
#038360:0013000000000000
#038320:00230000
#038371:00130000
#0383b1:0023
#039321:13332300
#039361:0033000000000000
#039370:00001333
#0393b0:0000000000330023
#039361:0000000000000013
#040321:0023000000000000
#040380:0013000000000000
#0403b0:00230000
#040361:00130000
#040321:0023
#041341:000000000000000000000000000000000000000000000000000000000000000000000000000000000000001300000000000000000000000000000000000000000000000000000000000000000000000000000000000000000000000000000000
#041351:000000000000000000000000000000000000000000000000000000000000000000000000000000000000000000000000000000000000005300000000000000000000000000000000000000000000000000000000000000000000000000000000
#041321:00000023
#0413a0:000000000000000000000000000000000000000000000000000000000000000000000000000000000000001300000000000000000000000000000000000000000000000000000000000000000000000000000000000000000000000000000000
#0413b0:000000000000000000000000000000000000000000000000000000000000000000000000000000000000000000000000000000000000005300000000000000000000000000000000000000000000000000000000000000000000000000000000
#041380:00000023
#042380:12000025
#0423b0:0000000000000013
#043370:00230000
#043320:0000001300000000
#043360:00000023
#0433b0:0000000000000013
#044370:00230000
#044320:0000000000000013
#045360:00230000
#0453b0:0000001300000000
#045370:00000023
#045320:0000000000000013
#046360:00230000
#046370:0000000000000013
#0473b0:00230000
#047360:0000001300000000
#047320:00000023
#047370:0000000000000013
#0483b0:00230000
#048360:0000000000000013
#049320:00230000
#049370:0000001300000000
#0493b0:00000023
#0513a0:1400002400000000
#051360:00340000
#051321:00140034
#051361:0000003400000024
#051360:00000014
#0513a0:0000000000000034
#052370:00540000000000000000000000000000
#0523a0:00240000
#052320:0000000000000014
#053360:00340000
#053320:0000002400000000
#0533a1:00140034
#053361:0000003400000024
#053360:00000014
#053320:0000000000000034
#054350:00540000000000000000000000000000
#054320:00340000
#054360:00003232
#055360:5252
#055340:00000032
#056360:5252
#056340:00000032
#057360:5252
#057340:00000032
#058360:520000000000000000000000000000000000003200000000000000000000000000000000000000000000000000000000000000000000003200000000000000000000000000000000220000000000000000000000000000000000000000000000
#0543a1:00140000
#054381:00003232
#055381:5252
#0553a1:00320000
#056381:5252
#0563a1:00320000
#057381:5252
#0573a1:00320000
#058381:3200003200002200
#002970:0000001300000000
#002990:000000000000000000000000000000000000000000000000000000000000000000000000000000000000002300000000000000000000000000000000000000000000000000000000000000000000000000000000000000000000000000000000
#002980:0000000000130000
#0029a0:000000000000000000000000000000000000000000000000000000000000000000000000000000000000000000000000000000000000000000000000000000000000002300000000000000000000000000000000000000000000000000000000
#002990:0000000000000013
#0029b0:000000000000000000000000000000000000000000000000000000000000000000000000000000000000000000000000000000000000000000000000000000000000000000000000000000000000000000000000000000000000002300000000
#004960:0000001300000000
#004940:000000000000000000000000000000000000000000000000000000000000000000000000000000000000002300000000000000000000000000000000000000000000000000000000000000000000000000000000000000000000000000000000
#004950:0000000000130000
#004930:000000000000000000000000000000000000000000000000000000000000000000000000000000000000000000000000000000000000000000000000000000000000002300000000000000000000000000000000000000000000000000000000
#004940:0000000000000013
#004920:000000000000000000000000000000000000000000000000000000000000000000000000000000000000000000000000000000000000000000000000000000000000000000000000000000000000000000000000000000000000002300000000
#006970:0000001300000000
#006990:000000000000000000000000000000000000000000000000000000000000000000000000000000000000002300000000000000000000000000000000000000000000000000000000000000000000000000000000000000000000000000000000
#006980:0000000000130000
#0069a0:000000000000000000000000000000000000000000000000000000000000000000000000000000000000000000000000000000000000000000000000000000000000002300000000000000000000000000000000000000000000000000000000
#006990:0000000000000013
#0069b0:000000000000000000000000000000000000000000000000000000000000000000000000000000000000000000000000000000000000000000000000000000000000000000000000000000000000000000000000000000000000002300000000
#008960:0000001300000000
#008940:000000000000000000000000000000000000000000000000000000000000000000000000000000000000002300000000000000000000000000000000000000000000000000000000000000000000000000000000000000000000000000000000
#008950:0000000000130000
#008930:000000000000000000000000000000000000000000000000000000000000000000000000000000000000000000000000000000000000000000000000000000000000002300000000000000000000000000000000000000000000000000000000
#008940:0000000000000013
#008920:000000000000000000000000000000000000000000000000000000000000000000000000000000000000000000000000000000000000000000000000000000000000000000000000000000000000000000000000000000000000002300000000
#041950:13
#041930:000000000000002300000000000000000000000000000000000000000000000000000000000000000000000000000000000000000000000000000000000000000000000000000000000000000000000000000000000000000000000000000000
#0419b1:13
#041991:000000000000002300000000000000000000000000000000000000000000000000000000000000000000000000000000000000000000000000000000000000000000000000000000000000000000000000000000000000000000000000000000
