This file was generated by Ched 2.7.0.0.
#TITLE ""
#ARTIST ""
#DESIGNER ""
#DIFFICULTY 0
#PLAYLEVEL
#SONGID ""
#WAVE ""
#WAVEOFFSET 0
#JACKET ""
#REQUEST "ticks_per_beat 480"
#00002: 4
#BPM01: 126
#00008: 01
#TIL00: ""
#VOLUME: ""
#HISPEED 00
#MEASUREHS 00
#01318:1313
#01312:00130013
#01315:0000001300000000
#0131b:00000013
#01718:0000000000000013
#01717:0000001300000000
#01712:0000001300001300
#01918:00000013
#01915:1300001300000013
#0191b:000000000000000000000000000000000000001300000000000000000000000000000000000000000000000000000000000000000000000000000000000000000000000000000000000000000000000000000000000000000000000000000000
#02018:1313
#02015:0000130000130000
#0201b:00000013
#02012:0000000000000013
#0251b:00130000
#02512:00000013
#0181b:000000000000000000000000000000000000001300000000000000000000000000000000000000000000000000000000000000000000000000000000000000000000000000000000000000000000000000000000000000000000000000000000
#01815:2300001300000000
#01818:0000000013000013
#01812:000000000000000000000000000000000000000000000000000000000000000000000000000000000000000000000000000000000000000000000000000000000000001300000000000000000000000000000000000000000000000000000000
#01810:41
#00215:0000130000130000
#00218:00001313
#00212:24000023
#0021a:24
#0021b:00230000
#0031b:13230000
#00315:0013000000000000
#00312:00001323
#00318:0000000000130000
#00418:0000130000130000
#00415:00001313
#00412:24230000
#0041a:24
#0041b:00000023
#00410:41
#00512:13230000
#00518:0013000000000000
#0051b:00001323
#00515:0000000000130000
#00612:24130023
#00618:0013
#00615:0000000000130000
#0061b:00230013
#0061a:24
#00718:1300000000130000
#00715:0013000013000000
#0071b:00230000
#00712:00000023
#0081b:00130023
#00815:0013
#00818:0000000000130000
#00812:24230013
#0081a:24
#01012:13
#0111b:13000023
#01112:00000023
#0121b:00130013
#01218:2300001300000000
#01212:00000013
#01215:2313
#01210:41
#01412:00130000
#01418:2300001300000000
#01415:0000000013130000
#0141b:00000013
#01515:1300001300000000
#0151b:00130000
#01518:0000000013130000
#01512:00000013
#01617:0000000000000013
#01618:0000001300000000
#01615:00130000
#01612:0000000000000013
#0161b:23
#02112:0013
#0211b:00001313
#02118:13130000
#02115:0013001300000013
#02315:00000013
#02318:1300001300000013
#02312:000000000000000000000000000000000000001300000000000000000000000000000000000000000000000000000000000000000000000000000000000000000000000000000000000000000000000000000000000000000000000000000000
#02415:1313
#02418:0000130000130000
#02412:00000013
#0241b:0000000000000013
#02212:000000000000000000000000000000000000001300000000000000000000000000000000000000000000000000000000000000000000000000000000000000000000000000000000000000000000000000000000000000000000000000000000
#02218:2300001300000000
#02215:0000000013000013
#0221b:000000000000000000000000000000000000000000000000000000000000000000000000000000000000000000000000000000000000000000000000000000000000001300000000000000000000000000000000000000000000000000000000
#02615:0000001300000000
#0261b:0000001300000000
#0261f:11
#02612:0000000000333333
#02618:0000000000333333
#02718:13
#02712:1300000000000013
#0271b:0033333300000000
#02715:0033333300000000
#02815:00130000
#02818:13
#02817:0000000000140000
#0281a:0000002400000014
#02916:00000014000000000000000000000000
#03016:0014
#0301a:24
#03116:0014
#03212:14
#0321a:14
#03218:0000340034003424
#03214:0034003400340000
#03415:00000013
#03418:0000000000130013
#0351b:0013000023000000
#03512:2300000000130023
#03515:00130000
#03518:00000013
#0351f:21
#03612:00130000
#03615:0013000000000013
#0361b:0000000000130000
#03618:00000013
#03712:0013000023000000
#0371b:2300000000130023
#03718:00130000
#03715:00000013
#03710:41
#0381b:00130000
#03818:0013000000000013
#03812:0000000000130000
#03815:00000013
#0391b:0013000023000000
#03912:2300000000130023
#03915:00130000
#03918:00000013
#04012:00130000
#04015:0013000000001300
#0401b:0000000000130000
#04018:0000000000000013
#0411b:0000000000000013
#04116:000000000000003300000000000000000000003300000000000000000000003300000000000000000000001300000000000000000000000000000000000000000000000000000000000000000000000000000000000000000000000000000000
#04112:13
#04217:000000000000003300000000000000000000003300000000000000000000003300000000000000000000001300000000000000000000000000000000000000000000000000000000000000000000000000000000000000000000000000000000
#0421b:13
#04212:0000000000000023
#0441b:0000001300000000
#04414:0013
#04419:0000000000130000
#04412:00000013
#04417:0000000000000023
#04615:0000001300130000
#04618:00001313
#0461b:0000000000000023
#04812:0000001300000000
#04819:0013
#04814:0000000000130000
#0481b:00000013
#04816:0000000000000023
#05012:000000000000003300000000130000000000000000000000000000000000000000000000000000000000000000000000000000000000000000000000000000000000000000000000000000000000000000000000000000000000000000000000
#05015:00000000001300000000000000000000
#05018:0000000000140000
#05014:00000014
#0501a:0000000000000024
#05213:0000001400000000
#05218:0014
#05214:0000000000140000
#05219:00000014
#05215:0000000000000024
#0541a:0000001400000000
#05416:00000014
#05517:1212
#05515:00160016
#05617:1212
#05615:00160016
#05717:1212
#05716:00140014
#05817:12
#05816:00140000
#03314:0000002400000000
#00914:2400002400002400
#00918:00000024000000000024000000000000
#0431b:0000002300000000
#04312:0000000000000023
#04310:41
#04516:0000002300000000
#04517:0000000000000023
#04712:0000002300000000
#0471b:0000000000000023
#04917:0000002300000000
#04916:0000000000000023
#05112:0000002400000000
#0511a:0000000000000024
#05110:41
#05317:0000002400000000
#05315:0000000000000024
#02058:13
#02055:00130000
#03258:0000000000000044
#03252:54
#0325a:64
#03354:0000003400000000
#00252:14
#0025a:14
#00452:14
#0045a:14
#0065a:14
#00652:14
#00852:14
#0085a:14
#01155:0013
#01158:0013
#01055:0013
#01058:0013
#01255:13
#01258:13
#0145b:00000013
#01552:00000013
#01757:0000005300000000
#01752:0000005300000000
#01657:0000000000000053
#01652:0000000000000053
#01855:13
#01858:0013
#01955:1300005300000000
#02455:13
#02458:00130000
#02255:0013
#02258:13
#02358:1300006300000000
#02755:0013
#0275b:0013
#02752:63
#02758:63
#02655:0000006300000000
#0265b:0000006300000000
#02857:0000000000640000
#0285a:0000005400000064
#02956:00000024000000000000000000000000
#0295a:0014
#03655:0053000000000000
#03652:00530000
#0385b:00630000
#03858:0063000000000000
#03552:0000000000000053
#03555:00130000
#03558:00000013
#03758:00130000
#03755:00000013
#0375b:0000000000000063
#04052:00530000
#04055:0053000000000000
#03955:00130000
#03958:00000013
#03952:0000000000000053
#04156:000000000000000000000000000000000000000000000000000000000000000000000000000000000000005300000000000000000000000000000000000000000000000000000000000000000000000000000000000000000000000000000000
#04152:63
#04257:000000000000000000000000000000000000000000000000000000000000000000000000000000000000006300000000000000000000000000000000000000000000000000000000000000000000000000000000000000000000000000000000
#0425b:53
#04252:0000000000000053
#04356:00130000
#0435b:0000006300000000
#04357:00000013
#04352:0000000000000053
#04457:0000000000000053
#0455b:00130000
#04556:0000006300000000
#04552:00000013
#04557:0000000000000053
#05052:0063000000000000
#05055:00000000002300000000000000000000
#0505a:0000000000000064
#0465b:0000000000000063
#04752:0000005300000000
#0475b:0000000000000063
#04757:00130000
#04756:00000013
#04856:0000000000000063
#04957:0000005300000000
#04956:0000000000000063
#04952:00130000
#0495b:00000013
#05255:0000000000000064
#05352:00140000
#05357:0000005400000000
#0535a:00000014
#05355:0000000000000064
#05152:0000005400000000
#05155:00000014
#0515a:0000000000000064
#05157:00140000
#0545a:0000005400000000
#05456:00000054
#05557:2222
#05555:00560056
#05657:2222
#05655:00560056
#05757:2222
#05756:00540054
#05857:22
#05856:00540000
#010380:1323
#010351:00132300
#011351:1323
#011380:00132300
#016320:0000000013000033
#016350:000000000000000000000000000000000000000000000000000000000000000000000000000000000000000000000000000000000000000000000000000000000000003300000000000000000000000000000000000000000000000000000000
#017360:0033000000230000
#017340:00330000
#017320:0000003300000000
#016371:0000000000000013
#0173b1:0033000000230000
#017391:00330000
#017371:0000003300000000
#019351:0000001300000000
#019321:0000000000230000
#023381:0000001300000000
#0233b1:0000000000230000
#025351:1323
#025380:0013
#026380:23
#026351:1300003300000000
#026321:0000000000333333
#027321:33
#027351:0033333323000000
#0263b0:0000001300000000
#026380:0000000000333333
#027380:33
#0273b0:0033333323000000
#0283a0:0000001400000034
#028370:0000000000340000
#029360:00000054000000000000000000000000
#0293a0:0024
#030320:14
#031320:24
#0313a1:14
#0323a1:34
#032381:0000340034003424
#032320:14
#032340:0034003400340054
#033340:0000002400000000
#035320:0000000000000013
#036350:0033000000000000
#036320:00330000
#036360:0023
#0373b0:0000000000000013
#038380:0033000000000000
#0383b0:00330000
#038370:0023
#039320:0000000000000013
#040350:0033000000000000
#040320:00330000
#040360:0023
#041320:13000023
#041360:000000000000003300000000000000000000003300000000000000000000003300000000000000000000003300000000000000000000000000000000000000000000000000000000000000000000000000000000000000000000000000000000
#0423b0:13000023
#042370:000000000000003300000000000000000000003300000000000000000000003300000000000000000000003300000000000000000000000000000000000000000000000000000000000000000000000000000000000000000000000000000000
#042320:0000000000000013
#043360:00230000
#0433b0:0000001300000000
#043370:00000023
#043320:0000000000000013
#044360:00230000
#044370:0000000000000013
#0453b0:00230000
#045360:0000001300000000
#045320:00000023
#045370:0000000000000013
#0463b0:00230000
#0463b0:0000000000000013
#047370:00230000
#047320:0000001300000000
#047360:00000023
#0473b0:0000000000000013
#048370:00230000
#048360:0000000000000013
#049320:00230000
#049370:0000001300000000
#0493b0:00000023
#049360:0000000000000013
#050320:000000000000003300000000330000000000000000000000000000000000000000000000000000000000000000000000230000000000000000000000000000000000000000000000000000000000000000000000000000000000000000000000
#050350:00000000005300000000000000000000
#0503a0:0000000000000014
#051370:00240000
#051320:0000001400000000
#051350:00000024
#0513a0:0000000000000014
#052370:00240000
#052350:0000000000000014
#053320:00240000
#053370:0000001400000000
#0533a0:00000024
#053350:0000000000000014
#054320:00240000
#0543a0:0000001400000000
#054360:00000034
#055370:5252
#055350:00360036
#056370:5252
#056350:00360036
#057370:5252
#057360:00340034
#058370:52000022
#058360:00340000
