This file was generated by Ched 2.7.0.0.
#TITLE ""
#ARTIST ""
#DESIGNER ""
#DIFFICULTY 0
#PLAYLEVEL
#SONGID ""
#WAVE ""
#WAVEOFFSET 0
#JACKET ""
#REQUEST "ticks_per_beat 480"
#00002: 4
#BPM01: 126
#00008: 01
#TIL00: ""
#VOLUME: ""
#HISPEED 00
#MEASUREHS 00
#0021a:0014
#00219:24
#00213:24
#00314:14
#0031a:0014
#00412:14
#00418:0014
#00410:41
#00512:14
#00518:0014
#00614:14
#00618:0014
#00712:14
#0071a:0014
#00814:14
#00818:0014
#01212:14
#01218:00140000
#01214:0014
#0121a:00000014
#01210:41
#01314:14
#01318:00140000
#01312:0014
#0141a:1414
#01414:00140000
#01512:1414
#01518:00140000
#0161a:14
#01614:00140000
#01618:0014
#01612:00000014
#01718:14
#01714:00140000
#0171a:0014
#01812:14
#01818:00140000
#01814:0014
#0181a:00000014
#01810:41
#01912:14
#01918:00140000
#01914:0014
#0201a:14141400
#02112:14141400
#0221a:14
#02214:00140000
#02218:0014
#02212:00000014
#0231a:14
#02314:00140000
#02318:0014
#02412:14141400
#0251a:14
#02512:0014
#0351a:24140000
#03514:00001414
#0351f:21
#03712:24140000
#03718:00001414
#03710:41
#03614:0014
#03618:00000014
#03818:0014
#03814:00000014
#03914:00140000
#03918:0014
#03912:00000014
#0391a:24
#04014:0014
#04018:00000014
#04112:1414
#04118:00140000
#0421a:1414
#04214:00140000
#04318:0014
#04312:24
#04310:41
#04412:14
#04418:0014
#04414:00000014
#0451a:14
#04514:0014
#0461a:14
#04614:0014
#04618:00000014
#04712:14
#04718:0014
#04812:14
#04818:0014
#04814:00000014
#0491a:14
#04914:0014
#05114:0014
#0511a:24
#05110:41
#05218:14000014
#05212:0014
#05312:14
#05318:0014
#05414:14000014
#0541a:0014
#0261f:11
#02618:24
#02814:24
#03219:0000000000000024
#03313:0000002400000000
#01352:0014
#0175a:0014
#0255a:14
#02552:0014
#0305a:0014
#03152:0014
#03259:0000000000000014
#03353:0000001400000000
#03658:00140000
#03854:00140000
#0405a:00140000
#04358:0014
#04352:14
#04452:14
#0455a:14
#04554:0014
#0465a:14
#04752:14
#04758:0014
#04852:14
#0495a:14
#04954:0014
#0515a:14
#05154:0014
#05258:14
#05352:14
#05358:0014
#05454:14
#009320:140000000000000000000000000000000000003400000000000000000000000000000000340000000000000000000000000000000000003400000000000000000000000000000000340000000000000000000000000000000000000000000000
#010320:34
#010340:0024
#0113a0:14
#011380:0024
#026380:14
#0263a0:0034
#027380:34
#0273a0:0024
#028340:14
#028320:0034
#029340:34
#029320:0024
#0303a0:1424
#031320:1424
#032390:1400340034003424
#036380:14240000
#038340:14240000
#0403a0:14240000
#0503a0:140000000000000000000000000000000000003400000000000000000000000000000000340000000000000000000000000000000000003400000000000000000000000000000000340000000000000000000000000000000000000000000000
#0513a0:24
#0553a0:14340000
#055380:00000034
#0563a0:00340000
#056380:00000034
#0573a0:00340000
#057380:00000034
#0583a0:00340024
