This file was generated by Ched 2.7.0.0.
#TITLE ""
#ARTIST ""
#DESIGNER ""
#DIFFICULTY 0
#PLAYLEVEL
#SONGID ""
#WAVE ""
#WAVEOFFSET 0
#JACKET ""
#REQUEST "ticks_per_beat 480"
#00002: 4
#BPM01: 120
#00008: 01
#TIL00: ""
#VOLUME: ""
#HISPEED 00
#MEASUREHS 00
#0051a:14
#00614:14
#00718:14
#00812:14
#0091a:14
#0101a:14
#01112:14
#01110:41
#01212:14
#01912:0016
#01918:26
#01910:41
#02018:16
#02012:0016
#02118:1616
#02212:1616
#02312:0016
#02318:26
#02512:16
#02518:0016
#02612:16
#02618:0016
#02610:41
#02714:14
#02818:14
#02912:14
#0301a:14
#04318:0016
#04312:26
#0431f:21
#04310:00410000
#04412:16
#04418:0016
#04512:1616
#04618:1616
#04718:0016
#04712:26
#04918:16
#04912:0016
#05018:16
#05012:0016
#05118:14
#05114:0014
#05218:14
#05214:0014
#0531a:14
#05312:0014
#05310:41
#0541a:14
#05412:0014
#05518:1414
#05614:1414
#0571a:1414
#05812:1414
#0351f:11
#01812:26
#01718:26
#03310:41
#0192f0:11
#0272f0:21
#0432f0:11
#0512f0:21
#001390:14
#002390:24
#003330:14
#004330:24
#0133a0:14
#013380:0034
#014380:34
#0143a0:0024
#015320:14
#015340:0034
#016340:34
#016320:0024
#024380:1626
#031340:1424
#032380:1424
#033320:1424
#0343a0:1424
#035340:14
#036340:24
#037380:14
#038380:24
#039320:14
#040340:24
#0413a0:14
#042380:24
#048320:1626
#059380:14
#0603a0:34
#061380:34
#0633a0:002400000000000000000000
