This file was generated by Ched 2.7.0.0.
#TITLE ""
#ARTIST ""
#DESIGNER ""
#DIFFICULTY 0
#PLAYLEVEL
#SONGID ""
#WAVE ""
#WAVEOFFSET 0
#JACKET ""
#REQUEST "ticks_per_beat 480"
#00002: 4
#BPM01: 120
#00008: 01
#TIL00: ""
#VOLUME: ""
#HISPEED 00
#MEASUREHS 00
#00518:000000000013000000130000000000000000230000000000
#00515:000000000000230000000000130000000013000000130000
#00512:13
#0051b:0013
#01312:1313131300130000
#0131a:14141414
#01315:0013
#02415:0013001300000000
#0241b:1313
#02412:13231300
#02418:0013001300000000
#0251b:13001313
#02512:0000001300130000
#02515:00131313
#02518:0013000000130000
#03013:00130000
#03012:0000001300000023
#03014:0013000000000000
#03015:130000000000000000000000000023000023000000000000
#0301a:0023000000000000
#03019:00230000
#03018:0000002300232300
#0301b:2300000023000023
#0391c:1252
#03914:22121212
#03918:00520052
#05312:13000013
#05315:0000001313000013
#05318:000000000000000000000013000000000000130000000000
#0531b:130000130000130000130000000000000000000000000033
#05313:0013000000000000
#05314:00130000
#0531a:000000000000000000000000000000000000000033330000
#05310:41
#05418:000013000000000000130000000000000000000000000000
#05412:230000230000230013000000
#0541b:000000130000000013000000
#05415:0023002300000000
#05519:000000000013000000130000000000130000000000000000
#05514:000000130000000000000000000000000013000000130000
#05516:0013
#0551b:1313
#05512:13
#05614:0013000014000000
#05613:0000000000140000
#05612:13000014
#05617:13
#05619:000000000013000000130000000000240000000000000000
#05618:0024
#0561a:00000024
#0161a:00130000
#01619:0000001300000000
#01618:0000000013131300
#0161b:0013000000000000
#01615:000000000000000000000000000013000013000000000000
#0211b:1300000000130000
#02118:000000130000000000000000130000000000000000000013
#02115:0000001313000000
#02112:0000130000130000
#02316:0013
#02314:0000000000130000
#02315:13
#0231b:0013000000000000
#02312:00130000
#02318:2300001300000000
#03712:12
#03716:00120012
#0371c:00120000
#03718:0012
#0411a:1454
#04112:24242424
#04116:00540054
#04118:0054005400540054
#0351c:0012
#03516:0012
#0351f:11
#03612:0012
#0361c:0012
#00112:1272
#00116:00520052
#0031c:1272
#00318:00520052
#0061b:0000000013130000
#00618:130000000013000000130000000000000000230000000000
#00612:1300000000001313
#00615:00231300
#01418:0013002300130000
#0141b:13131300
#01412:14141414
#01515:0013001300130000
#01512:13131300
#0151a:14141414
#02617:13
#02618:00001313
#02614:0000001300000000
#0261b:0000130000230013
#02616:00130000
#02619:0013000000000000
#02615:0000000000130023
#02612:0013
#02610:41
#0381c:12
#03818:00120012
#03812:00120000
#03816:0012
#04012:1353
#0401a:23132313
#04016:00530053
#02018:000000130000000000130000000013000000130000000000
#0201b:13131300
#02012:23232300
#02015:0023002300232300
#01914:0013
#01915:2300001300000000
#01913:0000000000130000
#01918:00130000
#0191b:13
#01912:0013000000000000
#01910:41
#0221b:0013000000000000
#02212:0000001300000000
#02215:0000000000130000
#02218:0000000000130000
#00815:13231300
#00813:00000013
#00814:0000000000130000
#00812:0000000000000013
#00818:0000001300000000
#0081b:130000000013000000000000000000000000000000000000
#05112:0013001300000000
#05118:0013001300000000
#0511b:13131300
#05115:00130000
#05117:00000013
#05119:0000000000130000
#01815:00000013
#0181a:2222
#01818:0022000000000000
#01816:00220000
#01814:0000002200000000
#0521b:0013001300000000
#05212:23132300
#05214:0000000000230000
#05216:00000023
#05217:0023
#05215:0023002300000000
#05218:00230000
#0071b:130000000013000000000000000000000000000000000000
#00718:0000001313002300
#00715:1300230000000013
#00712:000000000000000000000000130000000013000000000000
#00918:0000001212000000
#00916:0000000000121200
#0091c:00000012
#01116:0000001200000000
#0111a:0000000000120000
#01114:0000000000000012
#01110:41
#01016:1212
#01018:0012001212000000
#0101a:0000000000320000
#01014:0000000000320000
#0121a:0012000012000000
#01218:0000120000120000
#01216:0000001200001200
#01214:0012
#04918:00131313
#0491b:0000001300230000
#04915:0013000000130000
#04912:13002323
#0481b:13231300
#04812:13131300
#04815:0013001300000000
#04818:0013001300000000
#04615:0000000000130000
#04618:0000000000130000
#0461b:0000002300000000
#04612:0023000000002300
#0451b:0000130000130000
#04518:0000001313002300
#04512:1300000000130000
#04515:000000130000000000000000130000000000230000000013
#0431b:0013000000000000
#04312:13
#04315:00130000
#0431a:0000000000130000
#04318:0000001300000000
#04319:0013
#04316:24
#0431f:21
#04310:00410000
#04715:230000000033000000130000000000000000000000000000
#0471b:003300130000000000230000
#04712:000000130000000000000033000000000000000000000000
#04718:133300
#04719:0000000000230000
#04717:0023
#0501b:0013
#05018:0000000000130023
#05015:00000013
#05012:0000230000230013
#05017:00130000
#05019:0013001300000000
#05016:2323
#05014:0023002300000000
#04412:13131300
#04415:000000130000000000130000000013000000130000000000
#04418:0023002300232300
#0441b:23232300
#05712:2313000000000014
#05717:000013000013000000000000000000000000000000000000
#05716:000000000000000000000013000013000000000000000014
#0571b:0000002313000000
#05914:120052520052000000000000520052520052000000000000
#05915:000000000000520052520052000000000000520052520052
#0601a:120052520052000000000000520052520052000000000000
#06015:52
#06019:000000000000520052520052000000000000520052520052
#04212:2400000000242400
#0421a:5400000000242400
#01716:22
#01718:0022
#0171c:000000000052000000000000000000000000000000000000
#01712:000000000000000000000000000000000052000000000000
#0311b:230000000000230000000063630000000000230000000000
#03115:230000000023000000000000000000000023000000000000
#03118:000000000000000063630000000000000000000063630000
#02712:23
#02715:000000000023000000000000000000000023000000000000
#02718:230000000000230000000063630000000000230000000000
#0271b:000000000000000063630000000000000000000063630000
#0331b:000000230000000000000023000000000000000000000023
#03315:230000000000000000000000230063630000000000000000
#03318:000000000000630000000000000000000023000000000000
#03312:000000000000230063630000000000000000230063630000
#03310:41
#0331a:006300000000
#03319:000000000063000000000000000000000000000000000000
#03218:230000630000000063630000000063630000000023000023
#03215:000000000063630000000063630000000063630000230000
#03212:230000630000000063630000000063630000000000000000
#0321b:000000000063630000000063630000000063630000000000
#03415:23236300
#03412:0023006300000000
#03418:000023000000000000000000000063630000000000000000
#0341b:000000000023000000000000230000000063000000000000
#03414:000000000000006300000063000000000000000000000000
#03413:000000006363000000000000
#02812:230000630000000063630000000063630000000000000000
#02818:230000630000000063630000000063630000000000000023
#02815:000000000063000000000063000000000063630000230000
#0281b:000000000063000000000063000000000063630000000000
#02912:230000000000000063630000000000000000000063630000
#02918:000000000023000000000000000000000023000000000000
#02915:000000000000230000000063630000000000230000000000
#0581a:0000002424240000
#05816:000000000000000000000024000000240000000000000000
#05812:24
#00216:00520052
#00212:7272
#00418:00520052
#0041c:7272
#06312:005200000000000000000000
#06119:52
#04252:14
#0425a:14
#02358:1300006300000000
#02355:63
#0235b:0053000000000000
#02352:00630000
#0255b:00001313
#02552:0000000000130000
#02555:00000053
#0315b:13
#03155:13
#03752:22
#03756:00520000
#0375c:00620000
#03758:0062
#03652:0052
#0365c:0062
#05455:00000013
#05458:00000013
#05452:000023
#0545b:000023
#05652:00000014
#0565a:00000014
#00156:00520052
#00152:2222
#00256:00520052
#00252:2222
#0035c:2222
#00358:00620062
#00458:00620062
#0045c:2222
#01355:00005313
#01352:0000005300530000
#01552:00006313
#01555:0000006300630000
#02752:13
#02758:13
#0385c:22
#03858:00620000
#03852:00520000
#03856:0052
#02058:00000023
#02055:00000023
#01955:13
#01658:00000013
#0265b:0000000000000023
#02658:00000053
#02655:0000000000230000
#02652:0053
#02158:00005313
#0215b:0000000000230000
#02155:00006313
#02152:0000000000230000
#05256:00000013
#0525b:00000013
#05157:00000013
#05152:00000013
#05155:13
#02255:0000000000630000
#02258:0000000000530000
#0225b:00000013
#02252:00000013
#02452:00535300
#0245b:5353
#02458:0023000000001300
#02455:0000002300001300
#0355c:0022
#03556:0022
#05358:00000053
#00958:0052
#0095c:00000062
#00956:00000062
#01058:0062
#01056:0062
#01052:00000012
#0105c:00000012
#01256:00000012
#01458:0000005300530000
#0145b:00005313
#04858:0000002300001300
#04855:0023002300001300
#0485b:00636300
#04852:63636300
#0465b:00000013
#04652:00000013
#04655:0000000000630000
#04658:0000000000530000
#0495b:0000000000130000
#04952:00001313
#04958:00000063
#04458:00000023
#04455:00000023
#04356:14
#04755:1300005300000000
#0475b:00530000
#04752:0063000000000000
#04758:53
#0455b:0000000000230000
#04558:00005313
#04552:0000000000230000
#04555:00006313
#0505b:0063
#05058:0000000000230000
#05055:00000063
#05052:0000000000000023
#0575b:00000013
#05856:00140014
#05852:00140000
#0585a:00000014
#0083b0:0013
#009380:23
#009361:1222000000000000
#009380:0012220000000000
#009361:000000000000120032320032220000000000000000000000
#009380:0000000012000022
#0093c0:000000000000000000000000000000320032320000000000
#009361:00000012
#009321:0000000000000022
#010361:00123200
#010341:0000000000320000
#010321:00000022
#010380:0012
#0103a0:0000000000320000
#0103c0:00000022
#011380:1222000000000000
#011361:0012220000000000
#011380:000000000000120032320032220000000000000000000000
#011361:00001222
#011331:0000000000320000
#011380:00000012
#0113b0:0000000000000032
#012380:22
#012361:1222000000000000
#013321:0000001300330000
#013351:00003323
#014381:0000001300330000
#0143b1:00003323
#015351:0000001300330000
#015321:00003323
#015381:0000000000000013
#016381:23
#016350:13
#016320:0023
#017380:12
#0173c0:000000000022000000000000000000000000000000000000
#017360:0012
#017320:000000000000000000000000000000000022000000000000
#018380:0000000000001323
#018351:0000000000000013
#019351:23
#0193b1:0000001300000000
#019381:0000000000003323
#019320:0000000000001323
#020350:00000013
#020320:0000000000000023
#020381:00000013
#0203b1:0000000000000023
#021351:1323000000000000
#021381:0000132300000000
#021381:00001323
#0213b1:0000000000330000
#021350:00001323
#021320:0000000000330000
#022350:13230000
#022320:0033000000000000
#022381:00132300
#0223b1:0000003300000000
#022350:0000000013330000
#022320:00000023
#022381:0000000000130000
#0223b1:00000023
#023351:13
#023321:0023000000000000
#0233b0:0013000000000000
#023380:00230000
#023321:00130000
#023351:0000002300000000
#023380:0000001300000000
#0233b0:0033
#023370:0000000000003323
#023321:0000000000001323
#0243b1:13230000
#024381:0033000000000000
#024320:00133300
#024350:0000003300332300
#0243b1:0013
#024381:0000000000332300
#025351:1323000000000000
#025381:0000132300000000
#025351:00000013
#026321:23
#026321:00001323
#026351:0000000000330000
#026380:00000013
#0263b0:0000000000000033
#027380:23
#035360:1232
#035320:00000022
#0353c1:00123200
#035381:00000022
#0363c1:1232
#036381:00000022
#036320:00123200
#036360:00000022
#037320:1222
#037360:00320000
#0373c1:00120022
#037381:0032
#0383c1:1222
#038381:00320000
#038320:00120022
#038360:0032
#043320:0000001300000000
#043350:0000000000003323
#0433b1:0000000000001323
#044351:00000013
#044321:0000000000000023
#044380:00000013
#0443b0:0000000000000023
#045380:1323000000000000
#045350:0000132300000000
#045380:00001323
#0453b0:0000000000330000
#045351:00001323
#045321:0000000000330000
#046381:13230000
#0463b1:0033000000000000
#046350:00132300
#046320:0000003300000000
#046381:0000000013330000
#0463b1:00000023
#046350:0000000000130000
#046320:00000023
#047380:13
#0473b0:000033230000000000000000000000000000000000000000
#047321:0013000000000000
#047351:000000000033230000000000000000000000000000000000
#0473b0:00130000
#047380:000000000000000033230000000000000000000000000000
#047351:0000001300000000
#047321:000000000000000000000033330000000000000000000000
#047361:0000000000003323
#0473b0:0000000000001323
#048320:13333300
#048350:0033003300332300
#0483b1:00133300
#048381:0000003300332300
#049381:1323000000000000
#049351:0000132300000000
#049381:00000013
#0503b1:23
#0503b1:00001323
#050381:0000000000330000
#050350:00000013
#050320:0000000000000033
#051350:23
#051360:0013
#051320:00000023
#0513b0:0000000000000013
#052370:23
#052370:0013
#0523b0:00000023
#053380:0000000000133300
#0533a0:000000000000000000000000000000000000000033330000
#0533b0:000000000000000000000000000000000000000000000033
#0543b0:23
#054320:000000000000000000000000130000335300000000000000
#054350:00000023
#0543b1:000000000000000000000000130000335300000000000000
#054381:00000023
#055361:0000132300000000
#055371:0000000000001323
#056361:0000132300000000
#057321:0000132300000000
#0573b1:0000000000132300
#058361:0014240000000000
#058320:0014240000000000
#058360:0000000000142400
#0583a1:0000000000142400
#061371:12
#063321:002200000000000000000000
#001920:1252
#001960:00520052
#002920:5252
#002960:00520052
#003920:22
#0039c1:1252
#003981:00520052
#0049c1:5252
#004981:00520052
#0059c1:22
#027981:000000000000130000000053230000000000000000000000
#0279b1:000000000000000053530000000000000000000000000000
#027981:00000013
#0279b1:000000000000000000000000000000000000000053230000
#028921:130000530000000053530000000053530000000000000000
#028951:000000000053000000000053000000000053230000000000
#028980:130000530000000053530000000053530000000000000000
#0289b0:000000000053000000000053000000000053230000000000
#029950:000000000000130000000053230000000000000000000000
#029920:000000000000000053530000000000000000000000000000
#029950:00000013
#029920:000000000000000000000000000000000000000053230000
#0319b0:000000000000130000000053230000000000000000000000
#031980:000000000000000053530000000000000000000000000000
#0319b0:00000013
#031980:000000000000000000000000000000000000000053230000
#032920:130000530000000053530000000053530000000000000000
#032950:000000000053530000000053530000000053230000000000
#032981:130000530000000053530000000053530000000000000000
#0329b1:000000000053530000000053530000000053230000000000
#0339b1:0013000000000000
#033981:00230000
#033920:0000132300000000
#033950:0000000013230000
#033920:0000000000001323
#034950:00132300
#034920:0000005300000000
#0349b1:000000000000000000000000130000000023000000000000
#034981:000000000000000000000000000053530000000000000000
#0399c1:1252
#039981:00520022
#040921:1353
#040961:00530023
#0419a1:1454
#041961:00540054
#0429a1:24
#059941:120000000052000000000000520000000052000000000000
#059951:000000000000520000000052000000000000520000000000
#060951:22
#0609a0:120000000052000000000000520000000052000000000000
#060990:000000000000520000000052000000000000520000000000
#061990:22
