This file was generated by Ched 2.7.0.0.
#TITLE ""
#ARTIST ""
#DESIGNER ""
#DIFFICULTY 0
#PLAYLEVEL
#SONGID ""
#WAVE ""
#WAVEOFFSET 0
#JACKET ""
#REQUEST "ticks_per_beat 480"
#00002: 4
#BPM01: 120
#00008: 01
#TIL00: ""
#VOLUME: ""
#HISPEED 00
#MEASUREHS 00
#0351f:11
#03516:00121200
#03518:12
#0351b:0012
#0511a:1400000014000014
#05116:0014001400140000
#05112:00140014
#05018:0000131300001300
#05015:1313000013000000
#05012:0000232300002300
#0501b:2323000023000000
#03012:0000002300130013
#03015:63231313
#0301b:2300000023002323
#03018:0023000000230000
#01512:1300000000130000
#01515:0013000013000000
#01518:0000130000000013
#00315:13
#00318:00530000
#0031b:00000053
#02212:1313
#0221b:00130000
#04812:0013
#0481a:00230000
#0481b:0023
#04819:23
#02312:13000013
#0231b:2300001300000000
#02318:00131300
#02315:0013000000130000
#01612:00001313
#01618:00131313
#01615:1300001300130000
#0161b:0013000000130000
#01118:1300003300000013
#0111b:0033130000000000
#01115:0013
#01112:0000000000330000
#01110:41
#01215:1300130000130000
#01212:0000001300000000
#0121b:0013000000001300
#01218:0013
#01015:13131300
#01018:0013001313000000
#00912:0033130000000000
#00915:1300003300000000
#00918:0013
#0091b:0000000000330000
#00118:13
#00115:00530000
#00112:00000053
#05315:0013000013000013
#05318:00130013
#05312:13
#0531b:0000001300130000
#05310:41
#02615:0000131300001300
#0261b:0000131300001300
#02618:1313000013000000
#02612:1313000013000000
#02610:41
#02515:00130000
#02518:0013001300000000
#02512:13001414
#0251b:13
#0251a:0000000000140000
#0241b:0013
#02413:00230000
#02412:0023
#02414:23
#0191b:00001313
#01918:0013000000130000
#01915:00130000
#01912:23
#01910:41
#0211b:0000000000130000
#02118:1313
#02112:00130000
#02115:0013001300000000
#02018:0000000000241400
#0201a:0000242400000000
#02014:00002424
#02012:2424000000000000
#04918:00130000
#04915:0013001300000000
#0491b:13
#04912:1300000000240000
#0491a:00002424
#0471b:13000023
#04712:2300001300000000
#04715:00132300
#04718:0013000000230000
#0461b:1313
#04612:00130000
#04618:00000023
#04312:00001313
#04315:0013000000130000
#04318:00130000
#0431f:21
#0431b:23
#04310:00410000
#04512:0000000000130000
#04515:13001323
#0451b:00130000
#04518:0013001300000000
#04414:0000000000241400
#04412:0000242400000000
#04418:00002424
#0441a:2424000000000000
#0411a:00140014
#04112:24242424
#04015:00130013
#0401b:23132313
#03918:00120012
#03912:22121212
#03818:00120000
#03816:12
#03716:00120000
#03718:12
#0361b:0012
#03618:00120000
#03616:12
#03613:0012
#01815:00000013
#0181a:2222
#01814:0000002200000000
#01818:00220000
#01816:0022000000000000
#01812:0000000000000033
#0141b:1313132313000000
#01418:0000000000130000
#00818:1300000000000013
#00815:0000130000130000
#0081b:00230013
#00812:0013
#00515:13
#00518:00130013
#0051b:0013
#00512:00230023
#0061b:0013
#00615:1300000000000013
#00618:0000130000130000
#00612:00230023
#00718:13
#00712:0013
#00715:00130013
#0071b:00230023
#01312:1313130013000000
#01315:0000000000130000
#0541b:0023000013000000
#05418:0000002300000000
#05415:00230000
#05412:2323
#05916:12
#05913:0012
#06018:12
#0601b:0012
#05712:0000001400000015
#05715:0013000014000000
#0571b:00130000
#05718:23
#05815:1526
#05812:0000002600000000
#05818:0000000000260000
#05618:0000130000240000
#0561b:13
#05615:00130000
#05614:00002424
#0561a:0033003300000000
#05515:00130013
#05512:0013
#05518:00130013
#0551b:13
#05513:0000000000330033
#0551a:0033003300000000
#0521a:00240024
#05216:0024002400240000
#05212:2424
#02718:23
#02713:000000000000000000000000000000000063000063630000
#02715:000000000063000063630063630000000000000000000000
#04212:00000025
#04219:0000000000250000
#04215:26
#03115:23
#03118:000000000063000063630063630000000000000000000000
#0311a:000000000000000000000000000000000063000063630000
#03310:41
#03315:63
#0331b:6363000000000000
#03318:000000000000630063630063000000000000630063630063
#0331a:000000006300000000000000630063630063000000000000
#03319:000000000063000000000000000000000000000000000000
#00418:00530000
#0041b:00000053
#00215:00530000
#00212:00000053
#01716:000000000000000000000000000000000052000000000000
#01718:000000000052000000000000000000000000000000000000
#06312:005200000000000000000000
#0321a:63
#03215:000000000000630063630063000000000000000063630063
#03213:630000630063000000000000630063630063630000000000
#02913:630000000063000063630063630000000000000000000000
#02918:63
#02915:000000000000000000000000000000000063630063630000
#02818:630000630063000063630063000000000000000000630063
#02813:63
#0281a:000000000000000000000000000063630063630000000000
#03414:000000630063000000000000
#03413:630063630063000000000063000000000000000000000000
#03412:000000000000000000000000630063630064000000000000
#03415:000000000000006300630000000000000000000000000000
#03416:006300
#03418:63
#01555:00006313
#01552:0000000000630000
#02255:00000013
#02252:6363
#0225b:00530000
#04858:00000013
#04855:00000013
#0485b:0053
#04852:0063
#02455:00000013
#02458:00000013
#02452:0063
#0245b:0053
#02158:00005313
#0215b:0000000000530000
#0105b:00000013
#01052:00000013
#01058:0063
#01055:0053
#0145b:00006313
#01458:0000000000630000
#01352:00005313
#01355:0000000000530000
#05458:00000013
#05455:00000013
#05452:0023
#0545b:0023
#05052:00000053
#0505b:0063
#05058:00000053
#05055:0063
#04555:00006313
#04552:0000000000630000
#04658:00000013
#0465b:5353
#04652:00630000
#0495a:00001414
#04952:0000000000140000
#02758:13
#02054:00000024
#02058:00000024
#01952:13
#0195b:00006363
#01958:0000000000630000
#04458:00000024
#04454:00000024
#0435b:13
#04352:00005353
#04355:0000000000530000
#03155:13
#0525a:00000014
#04255:16
#01652:00000013
#01658:00000013
#0115b:00630000
#01158:63
#01155:0063
#00952:00530000
#00955:53
#00958:0053
#02655:00000063
#0265b:00000063
#02658:0053
#02652:0053
#02552:00001414
#0255a:0000000000140000
#0365b:0052
#03653:0062
#03556:0022
#0355b:0022
#01855:00000053
#0125b:00000013
#05152:00000014
#05956:52
#05953:0022
#06058:62
#0605b:0022
#05758:00000014
#05858:00150016
#05658:00230000
#0565b:63
#05654:00000014
#05555:00000023
#05552:0053
#05558:00230000
#0555b:63
#009350:1300003323000000
#009320:0033330000000000
#009381:0013
#0093b1:0000000000332300
#010381:0013
#0103b1:0000000000332300
#010350:0013
#010320:0000000000332300
#011380:1300003323000000
#0113b0:0033330000000000
#011351:0013
#011321:0000000000332300
#013321:0000001333002300
#013351:0000000000330000
#0143b1:0000001333002300
#014381:0000000000330000
#015351:0000001333002300
#015321:0000000000330000
#017381:120000000022000000000000000000000000000000000000
#017361:000000000000000000000000120000000022000000000000
#018351:00000013
#018321:0000000000000033
#019321:23
#0193b1:0000001333003300
#019381:0000000000330023
#020381:00000014
#0203a1:0000000000000024
#020340:00000014
#020320:0000000000000024
#021380:00001323
#0213b0:0000000000330000
#022320:13
#022350:00230000
#0223b1:00130000
#022381:0023
#022320:0013
#022350:00000023
#024340:1323000000000000
#024391:1323000000000000
#024331:0000132300000000
#0243a0:0000132300000000
#024320:0013
#024350:0000000000332300
#0243b1:0013
#024381:0000000000332300
#026381:0013
#0263b1:0000000000230000
#026320:0013
#026350:0000000000230000
#026350:00000013
#026320:0000000000000023
#0263b1:00000013
#026381:0000000000000023
#035361:0012
#035331:00000022
#0353b0:0012
#035380:00000022
#0363b0:0012
#036380:00000022
#036331:0012
#036361:00000022
#037331:00001222
#037361:0000000000520000
#0373b0:00001222
#037380:0000000000520000
#0383b0:00001222
#038380:0000000000520000
#038331:00001222
#038361:0000000000520000
#043321:0000001333003300
#043351:0000000000330023
#044341:00000014
#044321:0000000000000024
#044380:00000014
#0443a0:0000000000000024
#045350:00001323
#045320:0000000000330000
#0463b0:13
#046380:00230000
#046321:00130000
#046351:0023
#0463b0:0013
#046380:00000023
#048390:1323000000000000
#048341:1323000000000000
#0483a1:0000132300000000
#048330:0000132300000000
#0483b0:0013
#048380:0000000000332300
#048321:0013
#048351:0000000000332300
#050351:0013
#050321:0000000000230000
#0503b0:0013
#050380:0000000000230000
#050380:00000013
#0503b0:0000000000000023
#050321:00000013
#050351:0000000000000023
#0543b1:0013
#054381:00000023
#054320:0013
#054350:00000023
#0553b0:1323
#0553a0:0033003300000000
#055380:00330000
#055321:0013
#055331:0000000000330033
#055351:00000033
#056321:23
#0563b0:1323
#0563a0:0033003300000000
#056380:00330000
#057380:0000000000142400
#058380:0015250000000000
#058380:0000000000162600
#059360:12
#059330:0032
#060360:22
#060381:12
#0603b1:0032
#061381:22
#061360:12
#063320:002200000000000000000000
#001950:00130000
#001920:00000053
#002950:00530000
#002920:00000023
#003980:00130000
#0039b0:00000053
#004980:00530000
#0049b0:00000023
#027950:000000000013000053530000530000000000000000000000
#027930:000000000000000000000000000000000053000053000000
#028930:23
#028981:130000530000000053530053000000000000000000530000
#0289a1:000000000000000000000000000053530000530000000000
#029981:23
#029930:1300005353000000
#029950:000000000000000000000000000000000053000000000000
#030950:23
#031980:000000000013000000000000530000000000000000000000
#0319a0:000000000000000000000000000000000053000053000000
#0329a0:23
#032931:130000000053000000000000530000530053530000000000
#032951:000000000000530000000053000000000000000053000000
#033951:23
#0339b0:1353000000000000
#033980:000000000000530000530053000000000000530000530053
#0339a0:000000000000000000000000530000000053000000000000
#034980:23
#034931:130000000053000000000000000000000000000000000000
#034961:005300
#034921:000000000000000000000000530000530024000000000000
