This file was generated by Ched 2.7.0.0.
#TITLE ""
#ARTIST ""
#DESIGNER ""
#DIFFICULTY 0
#PLAYLEVEL
#SONGID ""
#WAVE ""
#WAVEOFFSET 0
#JACKET ""
#REQUEST "ticks_per_beat 480"
#00002: 4
#BPM01: 120
#00008: 01
#TIL00: ""
#VOLUME: ""
#HISPEED 00
#MEASUREHS 00
#0121a:00121212
#01218:0000001200120000
#01214:000000000000001200000000
#01216:000000000000000000000000000000000012000000000000
#0121c:0012000000000000
#01312:1313131300150000
#0131b:0000131300000000
#01316:130000130000000000000013000000000013000000000000
#01319:00001515
#01317:000000000000001300000000
#02416:000014000000140000000014000000000000000000000000
#02412:1414001414000000
#0241a:000000000014000014000000000000000000000000000000
#02418:000000000000000000000000000000141400000000000000
#02414:000000000000000000000000000000241400000000000000
#03219:000012000012
#03217:120000120012000000000012000000120012000000120012
#03215:000000000000001200000000
#03214:0000001200000000
#0321b:00130000
#03212:12001213
#0321c:0012000000000000
#03317:0012000000000000
#03318:0000001200120012
#03316:000052001200001200001200
#0331b:000000000000130000000000000000000012000000000000
#0331c:120000000000000000000000000000000000000000000012
#03312:00000013
#0331a:000000000000000000000012000000000000000000000000
#03314:00521200
#03310:41
#03315:000000000052000000000000000000000000000000000000
#03415:0000520052120000
#0341c:000000000000000000000000000000000012000000000000
#0341a:000000000000000000000000000012000000000000120000
#03418:0012005212000000
#03416:000012000000005200000052000000000000000000000000
#03414:000000000012000000000000000000000000000000000000
#03412:12000013
#0341b:00130000
#03417:000000005252000000000000
#05312:000013000000000013000000000000130000130000000000
#0531b:130000000013000000000013000000000000000013000000
#05316:0000000000000013
#05317:000000000000000000000000000000000000000000000013
#05318:0013001300000000
#05315:13131300
#05310:41
#05417:000000001300000000000000000000000000000000000000000000000013000000000000000000000000000000000000
#05419:000000000013000000000000000000330000000000000000
#0541b:0000001313001300
#05416:000000230000230000231400
#05412:2300002300230000
#05414:0023000000000000
#0551b:0000130013130013
#05515:130000000013000000000000000000000013000000000000
#05517:00000013
#05516:0000000000000013
#05518:0013000000000000
#05512:000013000000000000130000000000130000000000000000
#05719:000000130000000000000000000013000000000000000000
#05716:000013000000000000000000000000000000130000140014
#05714:000000000013000000000000130000000000000000000000
#05717:000000000000000000000013000000000000000000000000
#0571b:23000013
#05712:0000002300000000
#01116:00120000
#0111a:001200
#01114:0000001200000000
#01118:000000000000000000000012000000000000000000000000
#01110:41
#0161b:13131313
#01617:000000130000000000130000000013000000000000000000
#01612:0013001300130000
#01616:130000000000130000000000000000000013000000000000
#05816:000000000000140000240024000000240000140000000000
#05812:2414140000000000
#0581a:0000000024242400
#0141b:1300132300000000
#01416:130000000000130000130000000013000000000000000000
#01417:000000000000000000000013000000000013000000000000
#01412:0013000025002500
#01419:0000000000250000
#01515:001300000000000000000000
#01512:14140000
#0151a:14141414
#01518:0013000000000000
#01517:0000001300130000
#02612:001300001300000000000000
#0261b:000000000013000000000013000000000000130000000000
#02616:1414141414001400
#02617:0000000000130013
#02610:41
#02714:000000000000000012000000000000120000000000120000
#0271a:000000120000000000120000000000000000000012000000
#02712:000000000000000000000012000000000000120000000000
#02716:220000000012000000000000000000000000000000000000
#0271c:00120000
#02718:000000000000000000000000220000000012000000000000
#0271b:23
#01919:0013
#0191a:0000001300000000
#01918:0000000000130000
#0191b:00130000
#01912:22000000000017151614151314120000
#01917:00000013
#01910:41
#02214:000000000000001300000000
#02218:0000000000140000
#02217:000000000013000013000000000000000000000000000000
#02216:000013000000000000000013000000000000140000000000
#0221a:0014
#0221b:1313000000000000
#02212:000000000000130000130000000000000013000000000000
#05116:000014000014000014000014130000000000130000130000
#05113:0013000000000000
#05114:00130000
#05115:0000001300000000
#0511b:0000000000130013
#05112:00000013
#05117:0000000000130000
#0511a:14
#0561b:0000000013000000000000000000000000000000005300000000000000000000
#05612:1300000000000000000000000000000000530000240000000053000000000000
#05616:000000000013000000000000530000000000130000140000
#05617:0000000000130000
#0561a:00002424
#05614:00000000000000000000000000000000000000000000000000000000000000000053000000000000000000000000000000530000000000000000000000000000
#05619:00000000000000000000000000000000000000000000000000000000000000000000000000000000005300000000000000000000000000000000000000000000
#00218:0000000012520000
#00216:1252000000000000
#0021b:520000000000000000000000000000000052520000000000
#00219:000000000000000000000000000000000000000052520000
#00213:000000000052520000000000000000000000000000000000
#00215:000000000000000052520000520000000000000000000000
#0101c:00000012
#01012:00000012
#01016:000012000012000000120000120000000000000000000000
#01018:120000120000120000000012000000000000000000000000
#00916:000000000000000000000012000000120000120000000000
#00918:000000000000000012000000120000000012000000000000
#00914:0000001200000000
#0091a:00120000
#01718:120000000052000000000000220000000000000000000000
#0171c:000000000012000000000000000000000000000000000000000000000000000000000000000000000000000000000000
#01716:220000000000000000000000120000000052000000000000
#01712:000000000000000000000000000000000000000000000000000000000012000000000000000000000000000000000000
#01816:12
#01815:0012000000000000
#01814:00120000
#01813:0000001200000000
#01812:0012
#0181c:2222222200000000
#01818:0022
#02016:000000240014000000000000240014000000120000000000
#0201a:241400000000000000000000
#02018:000000241400000000220000
#02014:000000000000000000240014000000000000000000000000
#02012:0000000000240000
#02116:120000000000120000000000120000000000000000000013
#02112:0012001200120000
#0211c:0000000000120000
#02512:0014000000001300
#02518:0000140012130000
#02514:0000001400000000
#02515:00000000000000000000131300000000
#0251b:00000000000000000013000000000000
#0251a:14
#02516:0000000000000013
#0281c:220000120000001200000000
#02812:0000001200001200
#02818:000000220000000012000000000000000012000000120000
#0281a:000000000000000000000012000000000000000000000000
#02814:0012
#02816:220000000022000000000000000000120000000000000012
#0291a:000000000000000012000000000000120000000000120000
#02914:000000120000000000120000000000000000000012000000
#0291c:000000000000000000000012000000000000120000000000
#02918:220000000012000000000000000000000000000000000000
#02912:00120000
#02916:000000000000000000000000220000000012000000000000
#03016:0000142200002200
#03012:0000001400000022
#03014:000000140000000000000000000022000000000000160000
#03018:1422000014220000
#0301a:000000000000220000000000000000000022000000000000
#0301c:2222
#03116:260000000012000000000012000000120000000000120000
#03118:000000120000000000120000000000000012000000000000
#03112:000000001200000000130000
#0311b:00130000
#03114:0012000000000000
#0311c:220000120012
#0311a:0000000000120000
#03718:1212
#03716:00000012
#0371c:00120000
#0371a:0012000000000000
#03712:1212
#03714:0000000000120000
#03512:12
#0351c:0012
#03518:12
#0351a:0012000000000000
#03516:0012
#03514:0000000000120000
#0351f:11
#03812:1212
#03818:120000000000000000000000120000000000000000140014
#0381a:0012000000000000
#0381c:00120000
#03816:0000000000141400
#03814:000000000000000000000014
#03618:12001212
#0361a:0012000000000000
#03612:12
#03614:00000012
#0391c:1212
#03914:2412000000120000
#0391a:0000001200000012
#03912:00120012
#03918:000000520052520000000000000000520052520000000000
#03916:000000000000000000520052520000000000000000520000
#0401c:120000000000005200000000
#04018:005252120000120052000000
#04012:0000005200001200
#04015:0000000000000012
#04016:520000520000005200000052000000000052000000000000
#0401a:005200000052000000000000005200520000000000000000
#04014:000000005252000000000000
#04118:1200521200000000
#0411a:000000120052000000000000000000000000000000000000
#04116:0000000000120052
#0411c:005200000000
#04114:000052
#04112:000000000000000000000000000000000052520052000000
#05216:000014000014000014000014000000230000000000000000
#05217:00002323
#0521b:23000023
#0521a:0023000000000000
#05219:00230000
#05218:0000002300000000
#05212:0000000000230000
#0031c:0000000012520000
#00312:1252000000000000
#00319:520000000000000000000000000000000052520000000000
#0031b:000000000000000000000000000000000000000052520000
#00315:000000000052520000000000000000000000000000000000
#00313:000000000000000052520000000000000000000000000000
#00316:0052
#0011c:0000000012520000
#00112:1252000000000000
#00119:000000000000000000000000000000000052520000000000
#0011b:000000000000000000000000000000000000000052520000
#00115:000000000052520000000000000000000000000000000000
#00113:000000000000000052520000520000000000000000000000
#00412:1252000000000000
#0041c:0000000012520000
#00418:52
#00415:000000000052520000000000000000000000000000000000
#00413:000000000000000052520000000000000000000000000000
#00416:0052
#00419:000000000000000000000000000000000052520000000000
#0041b:000000000000000000000000000000000000000052520000
#00514:0000001300000013
#00519:0000001300000013
#00512:000000000013000000000000000000000000000000000000
#00517:0013230000000000
#00516:0000000013132300
#0051b:000000000000000000000000000000000013000000000000
#00518:52
#00616:0000000013130000
#00617:1313230000002313
#00619:0000001300000000
#00614:0000001300000000
#00612:000000000013000000000000000000000000000000000000
#0081b:0000001300130000
#00818:00000013
#00815:0000000000000013
#00816:14241400
#00812:000000130013000000130000000000000000000000000000
#00712:000000130013000000130000000000000000000000130000
#0071b:000000000000000000130000000000130013000000130000
#00716:14241424
#04816:000014000000140000000014000000000000000000000000
#0481a:1414001414000000
#04812:000000000014000014000000000000000000000000000000
#04814:000000000000000000000000000000141400000000000000
#04818:000000000000000000000000000000241400000000000000
#0501b:001300001300000000000000
#05012:000000000013000000000013000000000000130000000000
#05016:2424242424132413
#04314:0013
#04313:0000001300000000
#04315:0000000000130000
#04312:00130000
#04318:0016
#04317:0000001700000000
#04319:00000000000000150000150000000000
#0431a:24000000000000000014000014000000
#0431c:00000000000000000000000000120000
#0431b:00000000000000000000001300000000
#04316:00000023
#0431f:21
#04310:00410000
#04619:000000000000001300000000
#04616:000000000013000013000000000000000000240000000000
#04617:000013000000000000000013000000000000000000000000
#0461b:000000000000230000230000000000000013000000000000
#04612:2323000024000000
#04614:0000000000240000
#04418:000000000000000000240014000000000000120000000000
#04416:000000240014000000000000240014000000220000000000
#04412:241400000000000000000000
#04414:000000241400000000000000
#0441a:0000000000240000
#04518:12121222
#0451c:0012001200120000
#04512:0000000000120000
#04517:000000000000000000000000000000000000000000000013
#04516:00000022
#0491a:0014000000000000
#04914:00140000
#04918:00000000000014000000131300000000
#04915:0000000000130000
#04912:14000000000000000013000000000000
#0491b:00000013
#04917:0000000000000013
#04916:0022
#02312:2353000013001300
#0231b:0000235300130000
#02316:0000630000130000
#02317:23005313
#02315:0000000000000053000000000000000000000000000000000000000000000000
#02314:00000053000000000000000000000000
#02313:0000000000530000000000000000000000000000000000000000000000000000
#02318:0000000000000000000000000000005300000000000000000000000000000000
#02319:00000000000000530000000000000000
#0231a:0000000000000000000000000053000000000000000000000000000000000000
#0591c:120000000000000000000012000000000000000000000000
#05918:000000000012000000000000000000000000000000120012
#05914:000012000000000000520000000000000000120012000000
#0591a:000000000000520000000000000000120012000000000000
#05916:000000001200121200000000
#05912:0052000000000000
#06012:120000000000000000000012000000000000000000000012
#06014:0000520000120012
#0601a:000012000000000000520000000012000000000000000000
#06016:000000000012000000000000000000000012000000000000
#0601c:0052000000001200
#06018:000012120012
#04212:26000024
#04215:0000000000230000
#04218:2600000000230000
#0421a:00000024
#0471b:2353000023002300
#04717:0000630000230000
#04716:23005323
#04712:0000235300230000
#04718:0000000000000053000000000000000000000000000000000000000000000000
#04719:00000053000000000000000000000000
#0471a:0000000000530000000000000000000000000000000000000000000000000000
#04715:0000000000000000000000000000005300000000000000000000000000000000
#04714:00000000000000530000000000000000
#04713:0000000000000000000000000053000000000000000000000000000000000000
#0631d:005100000000000000000000
#0125a:00000012
#05756:00000053
#0575b:00000013
#05856:00540054
#0585a:00000014
#05852:00140000
#0165b:00000013
#01656:53530000
#01652:0023002300000000
#05257:00000013
#05256:0000000000130000
#05557:00000053
#0555b:0000530000000023
#0555a:44
#05552:0000005300000000
#01952:12000000000067256624652364220000
#01957:00000013
#0105c:00000012
#01052:00000012
#01056:0052
#01058:000000000000000000000052000000000000000000000000
#00956:00000062
#00958:0052
#01359:00000045
#01352:0000000000350000
#01452:00000035
#0145b:53
#01459:0000000000450000
#0155a:00000044
#01758:52
#0175c:000000000022000000000000000000000000000000000000000000000000000000000000000000000000000000000000
#01756:0062
#01752:000000000000000000000000000000000000000000000000000000000022000000000000000000000000000000000000
#01852:0052
#02056:00000022
#02058:00000022
#02156:00005212
#02152:0000000000220000
#0215c:0000000000220000
#02158:00000012
#02258:0000000000440000
#0225a:0044
#02256:00000044
#02458:000000000000000000000000000000642400320000000000
#02454:000000000000000000000000000000542400000000000000
#02456:00000042
#02558:0000000052530000
#02555:00000000000000000000532346000000
#0255b:00000000000000000023000000000000
#02552:00000053
#02556:0000000000000023
#03054:0000000000000046
#0315b:00430000
#03156:36
#03152:00000033
#0325b:00430000
#03252:00000033
#0335b:00430000
#03352:00000033
#03452:00000033
#0345b:00430000
#03758:0062
#03756:00000022
#0375c:00220000
#03752:52
#03552:52
#0355c:0062
#03852:62
#03858:0062
#0385c:00220000
#03652:52
#04252:36
#04258:46
#02656:00006464
#02657:0000000000530053
#0265b:00000053
#02652:0000000000440044
#0275b:13
#05156:0000000000001363
#05157:0000000000130000
#05152:13
#05355:13131300
#05358:0013001300000000
#0545b:00005353
#05456:000000000000000000332400
#05457:000000000000000000000000000000000000000000000000000000000053000000000000000000000000000000000000
#05652:5300000000140000
#0565a:00001414
#00558:12
#04358:0056
#04357:0000005700000000
#04359:00000000000000250000550000000000
#0435a:14000000000000000024000054000000
#0435c:00000000000000000000000000220000
#0435b:00000000000000000000002300000000
#04356:00000013
#04458:00000022
#04456:00000022
#04558:00006212
#0455c:0000000000220000
#04552:0000000000220000
#04556:00000012
#04854:000000000000000000000000000000542400000000000000
#04858:000000000000000000000000000000642400320000000000
#04856:00000042
#04955:0000000000633600
#04958:00000000000000000000632300000000
#04952:00000000000000000023000000000000
#0495b:00000063
#04957:0000000000000023
#04956:0062
#05056:0000000064636463
#05052:00000063
#0505a:0000000000340034
#04652:0034
#04654:0000000000340000
#04656:00000034
#0475b:00000053
#04756:00000053
#02352:00000053
#02357:00000053
#005320:1323000000000000
#0053b0:0000000013230000
#006320:1323000000000000
#0063b0:0000000013230000
#006320:0000000000001323
#0073b0:13
#007370:0023000000000000
#007320:0013
#007360:0000000000230000
#0083b0:13
#008370:0023000000000000
#008320:0013
#009320:23
#009381:1222000000000000
#009360:0012220000000000
#009380:0012
#0093c0:0000000000220000
#009360:00000012
#009320:0000000000000022
#010380:000000000000000000000012000000000000000000000000
#0103c0:0000000000220000
#010361:0012
#010321:0000000000220000
#011361:1222000000000000
#011380:0012220000000000
#011360:0012
#011320:0000000000220000
#0113c1:0000000000120000
#011381:00000022
#011360:00000012
#011320:0000000000000022
#0113c1:0000000000000012
#012381:22
#012360:1222
#0143b0:13
#014370:0023000000000000
#015360:000000000000000000000013230000000000000000000000
#015340:000000000000000000000000000013230000000000000000
#015320:000000000000000000000000000000000013230000000000
#015360:0000000000000013
#016360:33332300
#016320:0033003300000000
#017380:120000000022000000000000000000000000000000000000
#0173c0:000000000052000000000000000000000000000000000000000000000000000000000000000000000000000000000000
#017360:000000000000000000000000120000000022000000000000
#017320:000000000000000000000000000000000000000000000000000000000052000000000000000000000000000000000000
#018320:0012
#018370:00000022
#0183c1:00000012
#018381:00000000000000000000000000522200
#018360:0000000000000012
#018320:00000000000000000000000000000052
#019320:22
#019371:13
#0193b1:000033230000000000000000000000000000000000000000
#019320:0013000000000000
#019360:000000000033230000000000000000000000000000000000
#019320:00000000000017553654355334522300
#020380:00000012
#0203c0:0000000000000022
#020361:00000012
#020321:0000000000000022
#021361:000014240000000000000000000000000000000000000000
#0213a1:000000000014240000000000000000000000000000000000
#021361:000000000000000014240000000000000000000000000000
#0213a1:000000000000000000000014240000000000000000000000
#021360:00001222
#021320:0000000000320000
#0213c1:0000000000120000
#021381:00000022
#023321:13
#023371:0023000000000000
#023370:13
#023320:0023000000000000
#0233b0:00130000
#023360:0000002300000000
#023361:00130000
#0233b1:0000002300000000
#023321:00000013
#023361:0000000000000023
#023370:00000013
#0233b0:0000000000000023
#024380:0000000000140000
#024340:000054
#024360:00000022
#024341:0000000000140000
#024381:000000000000000054220000
#0253a1:000012220000000000000000000000000000000000000000
#025341:000000000012220000000000000000000000000000000000
#025381:000000000000000012220000000000000000000000000000
#025361:000000000000000000000012220000000000000000000000
#025380:0000000012530000
#0253b0:00000000000000000053000000000000
#025350:00000000000000000000005326000000
#025351:0000000000130000
#025321:00000000000000000000005353000000
#025361:0000000000000053
#026321:23
#026361:0014
#026321:0000000000240000
#026370:0000000000130033
#0263b0:00000033
#0273b0:23
#026361:00000014
#026321:0000000000000024
#027361:1222000000000000
#027381:0000000012220000
#028361:12
#028321:0022000000000000
#029381:1222000000000000
#029361:0000000012220000
#035321:12
#035361:00220000
#0353c0:00123200
#035380:00000022
#035321:00000012
#036321:32
#036361:00220000
#0363c0:00122200
#037320:12
#037360:00220000
#0373c1:00120022
#037381:0032
#037360:00000012
#038320:32
#038360:00220000
#0383c1:00120022
#038381:0032
#041341:1222
#0413a0:000000000000000000000000000000000000000000000000000000000000000000000000000000000000000000000000000000000000000000000000000000000000000000000000000000000000000000000000000000000000000000000000000000000000000000000000000000000000000000000000000000000000000000000000000000000000000000000000000000000000000000000000000000000000000000000000000000000000000000000000000000000000000000000000000000000000000000000000000000000000000000000000000000000000000000000000000000000000000000000000000000000000000000000000000000000000000000000000000000000000000000000000000000000000000000000000000000000000000000000000000000000000000000000000000000000000000000000000000000000000000000000000000000000000000000000000000000000000000000000000000000000000000000000000000000000000000000000000000000000000000000000000000000000000000000000000000000000000000000000000000000000000000000000000000000000000000000000000000000000000000000000000000000000000000000000000000000000000000000000000000000000000000000000000000000000000000000000000000000000000000000000000000000000000000000000000000000000000000000000000000000000000000000000000000000000000000000000000000000000000000000000000000000000000000000000000000000000000000000000000000000000000000000000000000000000000000000000000000000000000000000000000000000000000000000000000000000000000000000000000000000000000000000000000000000000000000000000000000000000000000000000000000000000000000000000000000000000000000000000000000000000000000000000000000000000000000000000000000000000000000000000000000000000000000000000000000000000000000000000000000000000000000000000000000000000000000000000000000000000000000000000000000000000000000000000000000000000000000000000000000000000000000000000000000000000000000000000000000000000000000000000000000000000000000000000000000000000000000000000000000000000000000000000000000000000000000000000000000000000000000000000000000000000000000000000000000000000000000000000000120000000000000000000000000000000000000000000000000000000000000000000000000000000000000000000000000000000000000000000000000000000000000000000000000000000000000000000000000000000000000000000000000000000000000000000000000000000000000000000000000000000000000000000000000000000000000000000000000000000000000000000000000000000000000000000000000000000000000000000000000000000000000000000000000000000000000000000000000000000000000000000000000000000000000000000000000000000000000000000000000000000000000000000000000000000000000000000000000000000000000000000000000000000000000000000000000000000000000000000000000000000000000000000000000000000000000000000000000000000000000000000000000000000000000000000000000000000000000000000000000000000000000000000000000000000000000000000000000000000000000000000000000000000000000000000000000000000000000000000000000000000000000000000000000000000000000000000000000000000000000000000000000000000000000000000000000000000000000000000000000000000000000000000000000000000000000000000000000000000000000000000000000000000000000000000000000000000000000000000000000000000000000000000000000000000000000000000000000000000000000000000000000000000000000000000000000000000000000000000000000000000000000000000000000000000000000000000000000000000000000000000000000000000000000000000000000000000000000000000000000000000000000000000000000000000000000000000000000000000000000000000000000000000000000000000000000000000000000000000000000000000000000000000000000000000000000000000000000000000000000000000000000000000000000000000000000000000000000000000000000000000000000000000000000000000000000000000000000000000000000000000000000000000000000000000000000000000000000000000000000000000000000000000000000000000000000000000000000000000000000000000000000000000000000000000000000000000000000000000000000000000000000000000000000000000000000000000000000000000000000000000000000000000000000000000000000000000000000000000052
#042380:26
#043360:13
#043320:000033230000000000000000000000000000000000000000
#0433b1:0013000000000000
#043371:000000000033230000000000000000000000000000000000
#043371:0000001700000000
#043391:00000000000000550000350000000000
#043381:0036
#0433a1:00000000000000000054000034000000
#0433b1:00000000000000000000005300002300
#0433c1:00000000000000000000000000520000
#044361:00000012
#044321:0000000000000022
#044380:00000012
#0443c0:0000000000000022
#045360:000014240000000000000000000000000000000000000000
#045320:000000000014240000000000000000000000000000000000
#045360:000000000000000014240000000000000000000000000000
#045320:000000000000000000000014240000000000000000000000
#045381:00001222
#0453c1:0000000000320000
#045320:0000000000120000
#045360:00000022
#0473b0:13
#047360:0023000000000000
#047361:13
#0473b1:0023000000000000
#047321:00130000
#047371:0000002300000000
#047370:00130000
#047320:0000002300000000
#0473b0:00000013
#047370:0000000000000023
#047361:00000013
#047321:0000000000000023
#048341:0000000000140000
#048381:000000000000000054220000
#048380:0000000000140000
#048340:000054
#048360:00000022
#049340:000012220000000000000000000000000000000000000000
#0493a0:000000000012220000000000000000000000000000000000
#049360:000000000000000012220000000000000000000000000000
#049380:000000000000000000000012220000000000000000000000
#049361:0012
#049321:00000000000000000053000000000000
#049351:0000000000532600
#049381:00000000000000000000005300000000
#049380:0000000000130000
#0493b0:00000000000000000000005353000000
#049370:0000000000000053
#0503b0:23
#050360:0014
#0503a0:0000000000240000
#050361:0000000000130033
#050321:00000033
#051321:23
#050360:00000014
#0503a0:0000000000000024
#051361:0000000000000013
#052321:23
#053371:0000000000132300
#0543b1:000000000000000000000000000000000000000000000000130000000000005300000000330000000000000000000000
#054371:000000000000000000000000000000000000000000000000000053000053000000000000000000000000000000000000
#054391:0000000000330000
#054361:000000000054
#0553a1:24
#0553b1:00130000
#055371:0000002300000000
#055320:0000001300000000
#055360:0023
#055370:00000013
#0553b0:0000000000000033
#056370:23
#056321:13
#056361:0023000000000000
#0563b1:0000132300000000
#056360:0000001323000000
#056320:0000000000000000000000000000000000000000000000000013000000000000
#057320:23
#057370:0000132300000000
#057360:0000000000133300
#057320:0000000000000023
#058360:0014340000000000
#0583a0:0000002400000000
#058360:0000000000143400
#059320:24
#061340:16
#0633d0:002100000000000000000000
#001920:1252000000000000
#001950:000000000052520000000000000000000000000000000000
#001930:000000000000000052520000220000000000000000000000
#0019c1:0000000012520000
#001991:000000000000000000000000000000000052520000000000
#0019b1:000000000000000000000000000000000000000052520000
#0029b1:22
#002960:1252000000000000
#002930:000000000052520000000000000000000000000000000000
#002950:000000000000000052520000220000000000000000000000
#002981:0000000012520000
#0029b1:000000000000000000000000000000000052520000000000
#002991:000000000000000000000000000000000000000052520000
#003991:22
#003920:1252000000000000
#003950:000000000052520000000000000000000000000000000000
#003930:000000000000000052520000000000000000000000000000
#003960:0022
#0039c1:0000000012520000
#003991:000000000000000000000000000000000052520000000000
#0039b1:000000000000000000000000000000000000000052520000
#004981:22
#004920:1252000000000000
#004950:000000000052520000000000000000000000000000000000
#004930:000000000000000052520000000000000000000000000000
#004960:0022
#0049c1:0000000012520000
#004991:000000000000000000000000000000000052520000000000
#0049b1:000000000000000000000000000000000000000052520000
#005981:22
#017981:000000000012000000000000000000000000000000000000
#017971:000000000000000000000021000000000000000000000000000000000000000000000000000000000000000000000000
#017961:000000000000000000000000000000000012000000000000
#017981:000000000000000000000000000000000000000000000000000000000000000000000021000000000000000000000000
#023921:0013000000000000
#023941:00000023000000000000000000000000
#0239b1:0000001300000000
#023991:00000000000000230000000000000000
#033971:0012000000000000
#033941:00220000
#034941:000000000012000000000000000000000000000000000000
#034981:0000005200000000
#034951:0022
#0399c1:12
#039981:0052220000000000
#039920:00120000
#039960:0000005222000000
#0399c1:0012
#039981:0000000000522200
#039920:00000012
#039960:0000000000000052
#040960:22
#0409c1:12
#040961:0052000000000000
#0409a1:000000000022000000000000000000000000000000000000
#040981:00120000
#040921:0000005200000000
#040961:000000000000000000000022000000000000000000000000
#040981:0012
#0409c1:000000000000005200000000
#040961:000000000000000000000000000000000022000000000000
#0419a1:0012000000000000
#0419c1:005200000000
#041981:00220000
#041961:0000000000120022
#041921:000000000000000000000000000000000052520052000000
#0479b1:0013000000000000
#047991:00000023000000000000000000000000
#047921:0000001300000000
#047941:00000000000000230000000000000000
#056961:0013
#056921:0000000000000000000000000000000000230000000000000000000000000000
#056971:0000000000130000
#0569b1:0000000000000000000000000000000000000000002300000000000000000000
#056961:00000013
#056921:0000000000000000000000000000000000000000000000000023000000000000
#059941:001200000000000000000000
#059921:0022000000000000
#059981:000000000012000000000000000000000000000000000000
#0599a1:00220000
#059961:001200
#059941:0000002200000000
#0609a1:001200000000000000000000
#0609c1:0022000000000000
#060961:000000000012000000000000000000000000000000000000
#060941:00220000
#060981:001200
#0609a1:0000002200000000
