This file was generated by Ched 2.7.0.0.
#TITLE ""
#ARTIST ""
#DESIGNER ""
#DIFFICULTY 0
#PLAYLEVEL
#SONGID ""
#WAVE ""
#WAVEOFFSET 0
#JACKET ""
#REQUEST "ticks_per_beat 480"
#00002: 4
#BPM01: 120
#00008: 01
#TIL00: ""
#VOLUME: ""
#HISPEED 00
#MEASUREHS 00
#0161a:00140000
#01612:14
#01618:0000000000140000
#01614:00001414
#0511a:0000140000140000
#05114:24001414
#05212:0000140000240000
#05218:14002424
#00514:14
#0051a:00240024
#02512:00000014
#0251a:0014
#02518:14
#02514:00140000
#02618:1414
#02614:00140000
#0261a:00000014
#02610:41
#01918:00140000
#01912:2414
#01914:0000000000140000
#01910:41
#0241a:0014
#02414:14
#02418:00140000
#02412:0024
#00112:0014000000140000
#00113:00140014
#00212:0014000000000000
#00213:00140000
#0031a:0014000000140000
#00319:00140014
#0041a:0014000000000000
#00419:00140000
#00612:14
#00618:00240024
#0071a:14
#00714:00240024
#00818:14
#00812:00240024
#0131a:1414
#01314:00140000
#01412:1414
#01418:00140000
#0151a:1414
#01514:00140000
#02018:14
#02014:00140000
#0201a:0024
#02112:14
#0211a:00140000
#02114:00001414
#02118:0000000000140000
#0221a:14
#02212:00140000
#02218:00001414
#02214:0000000000140000
#02312:14140000
#0231a:00001414
#02714:00140000
#02712:00000014
#0271a:0014
#02718:24
#02814:00140000
#02818:14
#02914:14
#02918:00140000
#02912:0014
#0291a:00000014
#03014:14
#03018:00140000
#0351a:1414
#0351f:11
#03612:1414
#03718:1414
#03814:1414
#03914:00140014
#0391a:2414
#04012:00140014
#04018:2414
#04114:00140014
#0411a:2414
#0491a:00000014
#04912:0014
#04914:14
#04918:00140000
#05014:1414
#05018:00140000
#05012:00000014
#04314:00140000
#0431a:0014
#04318:0000000000140000
#0431f:21
#04310:00410000
#04812:0014
#04818:14
#04814:00140000
#0481a:0024
#04414:14
#04418:00140000
#04412:0024
#0451a:14
#04512:00140000
#04518:00001414
#04514:0000000000140000
#04612:14
#0461a:00140000
#04614:00001414
#04618:0000000000140000
#0471a:14140000
#04712:00001414
#05314:14140000
#05318:00001414
#05310:41
#05518:14140000
#05514:00001414
#0561a:1424
#05612:00140000
#05714:14
#05718:0000140000140000
#05712:00001414
#0581a:14140000
#05814:0014000000000000
#05812:00002424
#05818:0000000000240000
#01818:2424
#01814:00240000
#05412:2424
#0541a:00240000
#0171a:24
#01712:0024
#04218:24
#01110:41
#03310:41
#0631a:005400000000000000000000
#02552:00000014
#0255a:0014
#02658:0054
#0265a:00000024
#0245a:0054
#02452:0064
#02758:14
#01654:00000014
#00152:0024000000240000
#00153:00540054
#00252:0024000000000000
#00253:00540000
#0035a:0024000000240000
#00359:00640064
#0045a:0024000000000000
#00459:00640000
#01254:00000014
#0135a:0054
#01452:0064
#0155a:0054
#01952:1454
#01954:0000000000240000
#02258:00000014
#0495a:00000014
#04952:0014
#05054:0064
#05052:00000024
#04852:0064
#0485a:0054
#0435a:1464
#04358:0000000000240000
#04654:00000014
#05154:14
#04258:54
#05454:00000014
#05852:00000014
#05658:00000014
#0192f0:11
#0272f0:21
#0432f0:11
#0512f0:21
#001320:1454005400540054
#001330:00340034
#002320:0054005400002400
#002330:00340000
#0033a0:1454005400540054
#003390:00340034
#0043a0:0054005400002400
#004390:00340000
#0093a0:14
#009380:0024
#010320:14
#010340:0024
#0113a0:14
#011380:0024
#012320:1434
#012340:00340024
#0133a0:0014
#013380:00000024
#014320:0014
#014340:00000024
#0153a0:0014
#015380:00000024
#019320:00001424
#019340:0000000000340000
#0203a0:00001424
#020321:00001424
#0243a1:0014
#024381:00000024
#024320:0014
#024340:00000024
#026380:0014
#0263a0:00000034
#027380:24
#0283a0:00001424
#030320:00001424
#0313a0:1434
#031380:00340024
#032340:1434
#032320:00340024
#033380:1434
#0333a0:00340024
#034320:1434
#034340:00340024
#042380:14
#0423a0:0000000000343400
#0433a0:24
#0433a0:00001424
#043380:0000000000340000
#044320:00001424
#0443a1:00001424
#048321:0014
#048341:00000024
#0483a0:0014
#048380:00000024
#050340:0014
#050320:00000034
#051340:24
#054320:0014
#054330:0000000000340000
#054340:00000024
#0563a0:0014
#056390:0000000000340000
#056380:00000024
#059380:14000024
#060340:14000024
#061380:14
#0633a0:002400000000000000000000
