This file was generated by Ched 2.6.1.0.
#TITLE ""
#ARTIST ""
#DESIGNER ""
#DIFFICULTY 0
#PLAYLEVEL
#SONGID ""
#WAVE ""
#WAVEOFFSET 0
#JACKET ""
#REQUEST "ticks_per_beat 480"
#00002: 4
#BPM01: 110
#00008: 01
#TIL00: ""
#HISPEED 00
#MEASUREHS 00
#0011b:13000000000013130000000000000000
#00115:00130000000000000000000013000000
#00118:0013000000000013
#00112:00000013000000000000000000000000
#00116:00000000000000130000000000000000
#0001b:0013
#00012:00000013
#00016:0013
#0021b:00000013000000000000000013000000
#00219:0000000000000013
#00212:13000000000013130000000000000000
#00218:00130000000000000000000000000000
#00215:0013000000000000
#00216:00000013
#00214:0000000000000013
#00217:00000000000000130000000000000000
#00317:13
#00312:13130013000000000000000000001300
#00315:00000000001300001300000000000000
#00314:0000000000130000
#00313:00000013
#00318:00130000
#00412:13
#00415:00001300000000000000001200000012
#00418:00000013000000000000000000000000
#0041b:00130000000000001200000012000000
#00413:00000000000000001212000000120000
#00419:0000000000120012
#00518:13000013
#00512:00130000000013000000001300001300
#00515:00000013000000000013000000000000
#0051b:00131300
#00517:0000001300000013
#00510:41
#00618:1300001300001313
#00612:00130000000000000000000000000000
#00615:00000013000000000000000000000000
#0061b:00131300
#00715:13000013
#0071b:00130000000013000000001300001300
#00718:00000013000000000013000000000000
#00712:00131300
#00716:0000001300000013
#0081a:0000000000000014
#00816:00000000000000000000000000000014
#00815:1300001300000000
#0081b:00130000000000000000000000000000
#00818:00000013000000000000000000000000
#00812:00130000
#00813:0000000000000000000000000000000000000000000000330000000000000000
#0091a:14000000001400000000001400000014
#00914:0014000000000000
#00918:00000014000000000000000000000000
#00915:0000000000140014
#00917:00000000000000140000000000000000
#00912:00000000001400000000000000000000
#0101a:00001414000000001400000000000014
#01016:0000000000000014
#01015:14
#01012:00000014000000141400000014000000
#01018:00000000001400000000000000000000
#01017:00000014
#01717:00130000
#01714:0014
#01712:00000000130000000000001400000000
#01716:13
#0171a:0014
#01718:00000000000000000000001400000000
#01719:00001300000013000000000000003333
#02012:00001313
#02018:00000000000000000000130000130000
#02015:00000000000000000013000000001300
#0201b:00000000000000000000001300000013
#0211b:0000001200001212
#02113:1200000012120000
#02110:41
#0241b:00000000000000000013000000001300
#02417:23
#02412:23
#02415:00000000000000000023000000002300
#02715:00130000000000130000000000000000
#02718:00001300000013130000000000000000
#02712:00000013000000000000000023000000
#0271b:00000013000000000000130000002300
#02717:00000023
#02716:0000000000000023
#02710:41
#02815:00001300000013130000000013000000
#02818:00130000000000130000000000001300
#02812:13000013000000000000130000000000
#0281b:00000013000000000000000000000000
#0291b:13
#02914:00130013000000000000000013000000
#02916:00000000001300001300000000000000
#02915:0000000000130000
#02913:0000000000000013
#0341b:0000000000131300
#05117:1300000000130000
#05112:1300000000131300
#05116:0000000000000013
#0511b:0000000000000013
#05216:13000013000000000000000000000000
#05212:0000001313000000
#0521b:0013130000130000
#05217:0000001313000000
#01116:1400000000000014
#01118:0014000000000000
#01114:00000014000000000000000000000000
#0111a:00000000001400000000001400000000
#01112:00000000000000140000000000000014
#01117:00000000000000140000000000000000
#01115:00000000000000000000141400000000
#01216:14000013
#01218:00000014000000140000000000000000
#01214:00001400000000140000000000000000
#01215:00000000001400000000000000000000
#0121b:00000013
#0121a:00000000001400000000000000000000
#01217:00000000000000000000000000000013
#01212:0000000000000023
#03112:00000013000000000000130000002300
#03118:00130000000000130000000000000000
#03115:00001300000013130000000000000000
#0311b:00000013000000000000000023000000
#03116:00000023
#03117:0000000000000023
#0321b:13000013000000000000130013000000
#03215:00130000000000130000000000000000
#03218:00001300000013130000000000000000
#03212:00000013000000000000000000000000
#03214:0000000000000033
#02518:0000001313000000
#0251b:13
#02519:0000000000000013
#02512:2300002300000000
#02515:0023
#02514:0000000000000023
#0261b:1323
#02618:00000013000013000000000013000000
#02615:00132300
#02612:23000013
#01617:0000000000131300
#01612:13
#01616:00001300001300000000000000000000
#0161b:00000013002300000000000000000000
#01615:00000000000000230000000000000000
#01916:00130000
#01918:0014
#0191a:00000000000000000000001400000000
#01917:13
#0191b:00130000
#01912:0014
#01914:00001300000013000000001400000033
#01915:0000000000000033
#01816:00000013
#0301b:0000001300001300
#03015:00000013
#03012:1323
#03019:00000013000000000000000000000000
#03014:00000013000000000000000000000000
#03016:0000001300000000
#03018:0023
#02214:12000012000000000000000013000000
#0221a:00000000001200001200000000000000
#02217:00000000000000000000001300000000
#02219:00000000000000000000000000130000
#02216:0000000000000013
#02212:0000000000230000
#05316:1300000000130000
#0531b:1300000000131300
#05317:0000000000000013
#05312:0000000000000013
#05417:13000013000000000000000000000000
#0541b:0000001313000000
#05412:0013130000130000
#05416:0000001313000000
#05517:13
#05512:1300000000130013
#05516:00130013
#0551b:00130013
#05616:13
#05612:00000013000013001300000000000000
#05617:0000001313000000
#0561b:1313130000130000
#0581b:00000013000013001300000000000000
#05812:1313130000130000
#05817:13
#05816:0000001313000000
#05917:13
#05912:13
#0591b:00130000
#05916:00130000
#05716:13
#0571b:1300000000130013
#05717:00130013
#05712:00130013
#01312:13000000001300000000001300000000
#0131b:00001300000000130000000000230000
#01316:00000013000000230000000000000000
#01317:00000000001300000000131300000000
#01315:0000000000000013
#01318:00000000000000000000000000000013
#01310:41
#01412:13001313000000001300000000000013
#01417:00000000000000131300000000002300
#0141b:00000023000000000000000013000000
#01416:00000013
#01415:00000000002300000000000000000000
#01519:13
#01514:00130000000000000000000000000000
#0151b:00001300002300000000000000000000
#01517:00000000000000000000131300000013
#01512:00000000000000000000001300002300
#01515:00000023000000230000000000000000
#02316:2313000000000000
#02317:00000000130000130000000000000000
#02312:0000131313000013
#02315:00000000000000000000001300130000
#0231b:13000000000000000000001300000000
#02318:0000000000130013
#04318:00130000000000130000000000000000
#04315:00001300000013130000000000000000
#0431b:00000013000000000000130023000000
#04312:00000013000000000000000000002300
#04316:00000023
#04317:0000000000000023
#0431f:21
#0441b:13000013000000000000000000120000
#04415:00130000000000130000000000000000
#04418:00001300000013130000000000000000
#04412:00000013000000000000130000000000
#04416:00000012
#04414:0000000000000012
#04419:00000000000000000000000000000012
#0471b:00000013000000000000000000002300
#04718:00001300000013130000000000000000
#04715:00130000000000130000000000000000
#04712:00000013000000000000130023000000
#04717:00000023
#04716:0000000000000023
#04812:13000013000000000000000013000000
#04818:00130000000000130000000000000000
#04815:00001300000013130000000000000000
#0481b:00000013000000000000130000000000
#04819:0000000000000033
#0421b:13000000001300000000000013000000
#04215:0013130000001300
#04212:13000000001300231300000000000000
#04218:00000013000000231300000000000000
#04612:00000013
#04618:00000013
#04616:12
#0461b:0000001223000000
#04615:0023
#03517:0000001300000013
#0351a:00001313
#0351b:0000000000130000
#0351c:12
#03515:00130000000000000000000000000000
#03519:0014000000000000
#03518:00130000
#03512:00000000000013333333003333330000
#03516:0000000000130000
#0351f:11
#03513:00000023000000000000000000000000
#03616:00000000000000130000000000000013
#03619:0000000013000013
#03614:00000000000000000013000000130000
#03617:0000000000131300
#03612:12000000000000000000002300000000
#03618:00130000000000000000000000000000
#03613:0014000000000000
#03615:00130000
#0361b:0000002300000000
#0361a:00000023000000000000000000000000
#03712:00000000000014000000000000140000
#03718:00000000130000140000000014000000
#03714:00000000000000001400001400000014
#0371a:00000000000000000014140000001400
#0371c:12
#03715:00130000000000000000000000000000
#03719:0014000000000000
#03713:00000023000000000000000000000000
#0381a:12000000000000000012000000000000
#03815:00120000000000000000120000000000
#03818:00000012000000000000000000000000
#03812:00000000000000000000000000001333
#03916:13000000001300130000000000000000
#03919:0000001300000000
#0391b:00231300
#03917:00000000000000000000001300130000
#03914:00000013
#03912:00330000000000000000230000001300
#0401b:13130000
#04015:00130000001300000000000000130013
#04018:0013000014001413
#04012:00000013000000140000001400000000
#0401a:0000001400140000
#04014:00000000000000000014000000000000
#04113:00120012000000000000000000000000
#0411a:1212000000000000
#04117:0000000023130000
#04116:00000000000000000000000000230013
#04112:00000000000000000023001300000000
#0411b:0000000000002313
#0451b:00120012000000000000000000000000
#04517:00000000001200001200000000000000
#04518:0000000000120000
#04513:0000000000120000
#04519:00000012
#0451a:0000000000000012
#04514:00000012
#04515:0000000000000012
#04512:12120000
#04510:41
#03312:00000013000000001300330000003300
#03316:00000013
#03317:00000000001300001300000000000000
#0331a:0000000000130013
#0331b:00000013
#03310:41
#05012:0000000000131300
#0491b:00000013000000001300330000003300
#04917:00000013
#04916:00131300
#04913:0000000000130013
#04912:00000013
#00156:00000000000000530000000000000000
#0015b:00000000000000530000000000000000
#00957:00000000000000540000000000000000
#01157:00000000000000540000000000000000
#01258:00000000000000640000000000000000
#02755:00000000000000530000000000000000
#02752:00000053000000000000000000000000
#02757:00000013
#02756:0000000000000013
#02858:00000000000000630000000000001300
#0285b:00000053000000000000000000000000
#02855:00000013
#03158:00000000000000630000000000000000
#0315b:00000053000000000000000000000000
#03156:00000013
#03157:0000000000000013
#03255:00000000000000530000000000000000
#03252:00000053000000000000000000000000
#05152:63
#05157:63
#0005b:0053
#00052:00000053
#00257:00000000000000630000000000000000
#00252:00000000000000630000000000000000
#00852:00000033
#00855:0000001300000000
#00859:00000000000000130000000000000000
#0245b:00000000000000000053000000000000
#02455:00000000000000000053000000000000
#0265b:0053
#02655:0053
#02658:00000053
#02652:00000053
#01058:00000000005400000000000000000000
#01052:00000054000000000000000000000000
#05252:0053
#05257:0013
#0305b:0000001300006300
#03055:00000063
#03052:1363
#03058:0063
#03059:00000013000000000000000000000000
#03056:0000001300000000
#03054:00000013000000000000000000000000
#02558:0053
#0255b:63
#02552:53
#02555:0053
#00455:0053000000000000
#00458:00000053000000000000000000000000
#05356:53
#0535b:53
#0545b:0063
#05456:0013
#05557:63
#05552:63
#0555b:00230000
#05556:00230000
#05652:0053
#05657:0013
#0585b:0063
#05856:0013
#05957:63
#05952:63
#0595b:00230000
#05956:00230000
#05756:53
#0575b:53
#05752:00230000
#05757:00230000
#01657:00000013
#0165b:00000000005300000000000000000000
#01655:00000000000000530000000000000000
#01756:13
#01752:00000000130000000000001400000000
#01754:0014
#01852:0000001400000000
#01856:00000013
#01957:13
#0195b:00130000
#01958:0014
#0195a:00000000000000000000001400000000
#0205a:0000001400000000
#01356:00000000000000530000000000000000
#0145b:00000053000000000000000000000000
#01455:00000000005300000000000000000000
#01555:00000053000000530000000000000000
#0155b:00000000005300000000000000000000
#0295b:13
#02956:0013
#02955:0000000000130000
#02954:00000013
#02953:0000000000000013
#0435b:00000063000000000000000000000000
#04355:00000000000000530000000000000000
#04356:00000013
#04357:0000000000000013
#04452:00000063000000000000000000000000
#04458:00000000000000630000000000000000
#04758:00000000000000630000000000000000
#04752:00000063000000000000000000000000
#04757:00000013
#04756:0000000000000013
#0485b:00000063000000000000000000000000
#04855:00000000000000530000000000000000
#0425b:00000063
#04255:00000063
#04252:0053
#04258:0053
#04652:00000053
#04658:00000053
#0465b:0053
#04655:0053
#03852:0000000000000063
#03956:23
#0405b:00130000
#04055:00000000001300000000000000000000
#02158:0000000000120000
#02156:0000000000000012
#03655:00130000
#03558:00130000
#03552:0000005300000000
#03556:0000000000230000
#03758:00130000
#03352:0053
#03356:00000023
#0495b:0063
#04957:00000023
#00655:0013
#00658:0000001300000000
#0003b0:0013
#000370:00000023
#000321:00000013
#001361:23
#001361:00000000000000130000000000000000
#001321:0000000000230000
#0013b0:00000000000000130000000000000000
#001370:0000000000230000
#002370:00000000000000130000000000000000
#0023b0:0000000000230000
#002321:00000000000000130000000000000000
#002361:0000000000230000
#0033b1:00000000001300003300000000000000
#003381:0000000000000023
#004351:0013000000000000
#004321:0000002300000000
#004380:00000013000000000000000000000000
#0043b0:0000002300000000
#006320:0000001300000000
#006350:0023
#006350:0000000000001323
#0083b0:0000001300000000
#008390:00000000000000230000000000000000
#008350:00000000000000000000001300000000
#008330:0000000000000000000000000000000000000000000000330000000000000000
#008320:00000023
#009370:00000000000000140000000000000000
#0093a0:0000000000240000
#010320:00000014000000000000000000000000
#010340:00000000002400000000000000000000
#010381:00000000001400000000000000000000
#0103a1:00000000000000240000000000000000
#011371:00000000000000140000000000000000
#0113a1:0000000000240000
#012381:00000000000000140000000000000000
#0123a1:0000000000240000
#013361:00000000000000130000000000000000
#013321:0000000000230000
#0143b1:00000013000000000000000000000000
#014381:00000000002300000000000000000000
#014350:00000000001300000000000000000000
#014320:00000000000000230000000000000000
#015350:00000013000000000000000000000000
#015320:00000000002300000000000000000000
#0153b1:00000000001300000000000000000000
#015381:00000000000000230000000000000000
#015350:00000000000000130000000000000000
#015320:0000000000230000
#0163b0:00000000001300000000000000000000
#016380:00000000000000230000000000000000
#016351:00000000000000130000000000000000
#016321:0000000000230000
#016321:00000013
#016351:0000000000000023
#016380:0000000000000013
#0173b0:23
#017370:00000000000000000000000000130000
#017390:00000000000000000000000000003333
#0183b0:3323000000000000
#017321:0000000000000014
#018321:0000002400000000
#018370:0000132300000000
#0183b0:00000000000000001300332300000000
#018361:00000000000000001300332300000000
#0183b1:00000013
#018381:0000000000000023
#018350:0000000000000013
#019320:23
#019360:00000000000000000000000000130000
#019350:0000000000000033
#019340:00000000000000000000000000000033
#020320:3323000000000000
#0193a1:0000000000000014
#0203a1:0000002400000000
#020360:0000132300000000
#0213b0:12000022000000000000000000000000
#021361:00000012000022000000000000000000
#021381:0000000012220000
#021361:0000000000001222
#022381:12000022000000000000000000000000
#022361:00000000001200002200000000000000
#024321:1300002300000000
#024370:1300002300000000
#0243b0:00000000000000000013000000000000
#024380:00000023
#024351:00000000000000000013000000000000
#024321:00000023
#025321:13
#025351:00000023000000000000000000000000
#0253b0:13
#025380:00000023000000000000000000000000
#025380:0013
#0253b0:00000000000000000000002300000000
#025351:0013
#025321:00000000000000000000002300000000
#0263b1:0013
#026381:00000033
#0273b1:23
#026350:0013
#026320:00000033
#027350:23
#027320:00000013000000000000000000000000
#027350:0000002300000000
#027350:00000000000000130000000000000000
#027320:0000000000230000
#0283b0:00000013000000000000000000000000
#028380:0000002300000000
#028380:00000000000000130000000000000000
#0283b0:0000000000230000
#0293b0:00000000001300003300000000000000
#030370:23
#030320:0013
#030350:00000033
#031320:23
#030381:0013
#0303b1:00000033
#031381:23
#0313b1:00000013000000000000000000000000
#031381:0000002300000000
#031381:00000000000000130000000000000000
#0313b1:0000000000230000
#032321:00000013000000000000000000000000
#032351:0000002300000000
#032351:00000000000000130000000000000000
#032321:0000000000230000
#032361:00000013
#032341:0000000000000033
#033321:23
#033371:00130023000000000000000000000000
#033321:00000000001300003300330000003300
#033361:00000033
#034321:23
#034370:13
#0343b0:00000023000000000000000000000000
#034361:00000013000000000000000000000000
#034321:0000002300000000
#0343b0:0000001300000000
#034380:0023
#034321:0013
#034361:00000023
#035321:00000000000013333333003333332300
#035361:0000000000330000
#038331:00000012002200000000000000000000
#0383a0:00000000001200220000000000000000
#038351:00000000000000120022000000000000
#0383a1:00000000000000000000001200000000
#0383c1:0000000000000022
#038320:00000000000000000000000000001333
#039360:33
#039320:00332300000000000000000000000000
#0413b0:0000132300000000
#041341:00000000001300230000000000000000
#042321:00000000000000133300000000000000
#042351:00000033
#043321:23
#042380:00000000000000133300000000000000
#0423b0:00000033
#043380:23
#0433b0:00000013000000000000000000000000
#043380:0000002300000000
#043350:00000000000000130000000000000000
#043320:0000000000230000
#044320:00000013000000000000000000000000
#044350:0000002300000000
#044380:00000000000000130000000000000000
#0443b0:0000000000230000
#045320:00000000001200002200000000000000
#0463b0:12
#046380:00000022000000000000000000000000
#046331:00000012000000000000000000000000
#046361:0000002200000000
#0463b1:0013
#046381:00000033
#0473b1:23
#046350:0013
#046320:00000033
#047350:23
#047320:00000013000000000000000000000000
#047350:0000002300000000
#047380:00000000000000130000000000000000
#0473b0:0000000000230000
#0483b0:00000013000000000000000000000000
#048380:0000002300000000
#048350:00000000000000130000000000000000
#048320:0000000000230000
#048370:00000013
#048390:0000000000000033
#0493b0:23
#049360:00130023000000000000000000000000
#0493b0:00000000001300003300330000003300
#049370:00000033
#0503b0:23
#050361:13
#050321:00000023000000000000000000000000
#050370:00000013000000000000000000000000
#0503b0:0000002300000000
#050321:0000001300000000
#050351:0023
#0503b0:0013
#050370:00000023
#050321:00000013
#051321:53
#051361:0023
#051370:13
#0513b0:0023
#052320:0013
#052360:00000023
#0523b1:00000013
#0533b1:53
#053371:0023
#053360:13
#053320:0023
#0543b0:0013
#054370:00000023
#054321:00000013
#055321:5323
#055361:00530000
#055370:1323
#0553b0:00530000
#056320:0013
#056360:00000023
#0563b1:00000013
#0573b1:5323
#057371:00530000
#057360:1323
#057320:00530000
#0583b0:0013
#058370:00000023
#058321:00000013
#059321:5323
#059361:00530000
#059370:1323
#0593b0:00530000
